+ ShareSpark.net »  :::: Dubbed Zone (Dubbed English in Hindi) » English Movies Dubbed in Hindi » 3D Movies
|- X-Men Apocalypse (2016) 3D 1080p BDRip Dual Audio 5.1ch (Hindi-Eng)~Vision [5.9 GB]


X-Men Apocalypse (2016) 3D 1080p BDRip Dual Audio 5.1ch (Hindi-Eng)~Vision [5.9 GB]

0 Members and 1 Guest are viewing this topic.

October 19, 2016, 01:17:59 PM
  • ♫♫♣ B૦ՐՈ T૦ H૯Նƿ ♣♫♫
  • Junior Moderator
  • Legend Member
  • ***
  • Topic Author
  • Thank You: 766
  • Reputation: 656
  • Activity:
    64.8%
  • Country: in
  • Posts: 2304
  • Topics: 897
  • Join Date: Jan 2013
  • ♠§§ Dσп'т Tαʟκ Jυƨт Acт §§ Dσп'т Sαч Jυƨт Sнσш §§♠
Torrable - One stop for all your download & upload needs. It's smart, easy and free.
:title:
X-Men Apocalypse (2016) 3D 1080p BDRip Dual Audio 5.1ch (Hindi-Eng)~Vision




:info:
Complete name : X-Men Apocalypse (2016) 3D 1080p BDRip Dual Audio 5.1ch (Hindi-Eng)~Vision.mp4
Format : MP4
Format version : Version 4 / Version 2
File size : 5.86 GiB
Duration : 2 h 23 min
Overall bit rate : 5 824 kb/s
Movie name : Ripper~Vision
Encoded date : UTC 2016-10-20 00:59:09


Video
ID : 1
Format : AVC
Format/Info : Advanced Video Codec
Format profile : [email protected]
Format settings, CABAC : Yes
Format settings, ReFrames : 3 frames
Codec ID : V_MPEG4/ISO/AVC
Duration : 2 h 23 min
Bit rate : 5 200 kb/s
Width : 1 920 pixels
Height : 1 080 pixels
Display aspect ratio : 16:9
Frame rate mode : Constant
Frame rate : 23.976 (24000/1001) FPS
Color space : YUV
Chroma subsampling : 4:2:0
Bit depth : 8 bits
Scan type : Progressive
Bits/(Pixel*Frame) : 0.105
Stream size : 5.21 GiB (89%)
Title : Vision 3D
Writing library : x264 core 142 r2431 ac76440
Language : English
Default : Yes
Forced : No

Audio #1
ID : 2
Format : AAC
Format/Info : Advanced Audio Codec
Format profile : LC
Codec ID : A_AAC
Duration : 2 h 23 min
Bit rate : 317 kb/s
Channel(s) : 6 channels
Channel positions : Front: L C R, Side: L R, LFE
Sampling rate : 48.0 kHz
Frame rate : 46.875 FPS (1024 spf)
Compression mode : Lossy
Stream size : 327 MiB (5%)
Title : Vision~Hindi
Language : Hindi
Default : Yes
Forced : Yes

Audio #2
ID : 3
Format : AAC
Format/Info : Advanced Audio Codec
Format profile : LC
Codec ID : A_AAC
Duration : 2 h 23 min
Bit rate : 317 kb/s
Channel(s) : 6 channels
Channel positions : Front: L C R, Side: L R, LFE
Sampling rate : 48.0 kHz
Frame rate : 46.875 FPS (1024 spf)
Compression mode : Lossy
Stream size : 327 MiB (5%)
Title : Vision~Eng
Language : English
Default : No
Forced : No

Text
ID : 4
Format : PGS
Muxing mode : zlib
Codec ID : S_HDMV/PGS
Codec ID/Info : Picture based subtitle format used on BDs/HD-DVDs
Duration : 2 h 12 min
Bit rate : 6 233 b/s
Count of elements : 2916
Stream size : 5.90 MiB (0%)
Title : PGS English
Language : English
Default : No
Forced : No


:ss:





:download:
Sample ->


Full Movie Single Link ->


Full Movie 1GB Split Links















Share this topic on FacebookShare this topic on GoogleShare this topic on MySpaceShare this topic on TwitterShare this topic on Yahoo

« Last Edit: October 19, 2016, 01:32:14 PM by ♥[--K4Krish--]♥ »


Thanks given by:


Tags:
 

Related Topics





Back to top