+ ShareSpark.net »  :::: Dubbed Zone (Dubbed English in Hindi) » English Movies Dubbed in Hindi » High Resolution Movies
|- The Legend Of Tarzan 2016 BluRay 1080p x264 Dual Audio Org DD5.1 Esub...Hon3y With Google Drive Link

Subscribe and Save
  • The Legend Of Tarzan 2016 BluRay 1080p x264 Dual Audio Org DD5.1 Esub...Hon3y With Google Drive Link 5 1
Currently:  

The Legend Of Tarzan 2016 BluRay 1080p x264 Dual Audio Org DD5.1 Esub...Hon3y With Google Drive Link

0 Members and 1 Guest are viewing this topic.

October 22, 2016, 11:43:18 PM
  • Global Moderator
  • Legend Member
  • *****
  • Topic Author
  • Thank You: 8971
  • Reputation: 1921
  • Activity:
    100%
  • Country: in
  • Posts: 4991
  • Topics: 4118
  • Join Date: Jan 2014
  • ıllıllı ѕмoĸιng ιѕ good ғor нealтн ıllıllı :)


The Legend Of Tarzan 2016 BluRay 1080p x264 Dual Audio [Hindi - English] Org DD5.1 Esub...Hon3y



General
Format                      : Matroska
Format version              : Version 4 / Version 2
File size                   : 4.36 GiB
Duration                    : 1 h 49 min
Overall bit rate            : 5 674 kb/s
Movie name                  : [email protected]

Video
Format                      : AVC
Format/Info                 : Advanced Video Codec
Format profile              : [email protected]
Format settings, CABAC      : Yes
Format settings, ReFrames   : 5 frames
Codec ID                    : V_MPEG4/ISO/AVC
Duration                    : 1 h 49 min
Bit rate                    : 4 794 kb/s
Width                       : 1 920 pixels
Height                      : 800 pixels
Display aspect ratio        : 2.40:1
Frame rate mode             : Constant
Frame rate                  : 23.976 (24000/1001) FPS
Color space                 : YUV
Chroma subsampling          : 4:2:0
Bit depth                   : 8 bits
Scan type                   : Progressive
Bits/(Pixel*Frame)          : 0.130
Stream size                 : 3.66 GiB (84%)
Title                       : [email protected]

Thanks To GP SOFT For Hindi Audio

Audio 1
Format                      : AC-3
Format/Info                 : Audio Coding 3
Mode extension              : CM (complete main)
Format settings, Endianness : Big
Codec ID                    : A_AC3
Duration                    : 1 h 49 min
Bit rate mode               : Constant
Bit rate                    : 448 kb/s
Channel(s)                  : 6 channels
Channel positions           : Front: L C R, Side: L R, LFE
Sampling rate               : 48.0 kHz
Frame rate                  : 31.250 FPS (1536 spf)
Compression mode            : Lossy
Stream size                 : 352 MiB (8%)
Title                       : [email protected]
Default                     : Yes
Forced                      : Yes

Audio 2
Format                      : AC-3
Format/Info                 : Audio Coding 3
Mode extension              : CM (complete main)
Format settings, Endianness : Big
Codec ID                    : A_AC3
Duration                    : 1 h 49 min
Bit rate mode               : Constant
Bit rate                    : 448 kb/s
Channel(s)                  : 6 channels
Channel positions           : Front: L C R, Side: L R, LFE
Sampling rate               : 48.0 kHz
Frame rate                  : 31.250 FPS (1536 spf)
Compression mode            : Lossy
Stream size                 : 352 MiB (8%)
Title                       : [email protected]
Language                    : English
Default                     : No

Subtitle Text 1
Format                      : PGS
Muxing mode                 : zlib
Codec ID                    : S_HDMV/PGS
Codec ID/Info               : Picture based subtitle format used on BDs/HD-DVDs
Duration                    : 1 h 47 min
Bit rate                    : 6 735 b/s
Count of elements           : 1880
Stream size                 : 5.19 MiB (0%)
Title                       : [email protected]
Default                     : Yes

Subtitle Text 2
Format                      : UTF-8
Codec ID                    : S_TEXT/UTF8
Codec ID/Info               : UTF-8 Plain Text
Duration                    : 2 h 26 min
Bit rate                    : 55 b/s
Count of elements           : 2105
Stream size                 : 59.1 KiB (0%)
Title                       : [email protected]
Language                    : English













Don't walk as you are king, walk as you don't care who the king is....!!
Never argue with an idiot. They drag you down to their level and then beat you with experience?

Share this topic on FacebookShare this topic on GoogleShare this topic on MySpaceShare this topic on TwitterShare this topic on Yahoo

« Last Edit: October 23, 2016, 12:06:07 AM by ranvijay1234 »



Don't walk as you are king, walk as you don't care who the king is....!!

October 23, 2016, 06:51:34 AM
Reply #1
  • Hero Member
  • ***
  • Thank You: 6
  • Reputation: 5
  • Activity:
    1%
  • Country: in
  • Posts: 320
  • Topics: 7
  • Join Date: Mar 2012
  • ShareSpark Member.. Contact me 4 anything.

October 23, 2016, 01:16:21 PM
Reply #2
  • Elite Moderator
  • Legend Member
  • ****
  • Thank You: 1999
  • Reputation: 286
  • Activity:
    3.6%
  • Country: in
  • Posts: 3722
  • Topics: 2854
  • Join Date: Sep 2016
  • (: EnJOy D LiFe :)

October 24, 2016, 01:57:31 AM
Reply #3
  • ţя¥ɨɲǥ ţ๏ ţя€$ρą$$ ɨɲ $๏ʍ€๏ɲ€'$ h€ąяţ
  • Global Mod (Inactive)
  • Legend Member
  • *****
  • Thank You: 1056
  • Reputation: 951
  • Activity:
    0%
  • Country: us
  • Posts: 3610
  • Topics: 489
  • Join Date: Jun 2012
  • Reinstated
  • Expertises:
  • Dubbed Hindi Audios
  • PC Resolution Centre


[url=http://sharespark.net/index.php?topic=31409]• ן!ʌǝp pǝɹ •

May 11, 2018, 08:20:03 PM
Reply #4
  • Semi Newbie
  • **
  • Thank You: 0
  • Reputation: 0
  • Activity:
    3.6%
  • Country: in
  • Posts: 27
  • Topics: 0
  • Join Date: Apr 2018
  • ShareSpark Member
« Last Edit: May 11, 2018, 08:20:29 PM by MiiMARATHI »

Tags:
 

Related Topics




Back to top