+ ShareSpark.net »  :::: Bollywood Zone » Regional Movies » Bengali Movies
|- Abby Sen (2016) - WEBTV Rip - x264 - AC3 [DDR]


Mastercard 10% Off

Abby Sen (2016) - WEBTV Rip - x264 - AC3 [DDR]

0 Members and 1 Guest are viewing this topic.

October 25, 2016, 10:32:28 PM
  • ♫♫♣ B૦ՐՈ T૦ H૯Նƿ ♣♫♫
  • Global Moderator
  • Legend Member
  • *****
  • Topic Author
  • Thank You: 1104
  • Reputation: 725
  • Activity:
    0%
  • Country: dk
  • Posts: 2712
  • Topics: 1192
  • Join Date: Jan 2013
  • ♠§§ Dσп'т Tαʟκ Jυƨт Acт §§ Dσп'т Sαч Jυƨт Sнσш §§♠


Abby Sen (2016) - WEBTV Rip - x264 - AC3 [DDR]



:info:
Format version : Version 4 / Version 2
File size : 853 MiB
Duration : 2h 2mn
Overall bit rate : 971 Kbps
Encoded date : UTC 2016-10-24 17:24:59
Writing application : mkvmerge v7.7.0 ('Six Voices') 32bit built on Feb 28 2015 23:23:00
Writing library : libebml v1.3.1 + libmatroska v1.4.2
_STATISTICS_WRITING_APP : mkvmerge v7.7.0 ('Six Voices') 32bit built on Feb 28 2015 23:23:00
_STATISTICS_WRITING_DATE_UTC : 2016-10-24 17:24:59
_STATISTICS_TAGS : BPS DURATION NUMBER_OF_FRAMES NUMBER_OF_BYTES
DURATION : 02:02:52.320000000
NUMBER_OF_FRAMES : 230385
NUMBER_OF_BYTES : 176935680

Video
ID : 1
Format : AVC
Format/Info : Advanced Video Codec
Codec ID : V_MPEG4/ISO/AVC
Duration : 2h 2mn
Bit rate : 777 Kbps
Width : 624 pixels
Height : 264 pixels
Display aspect ratio : 2.35:1
Frame rate mode : Constant
Frame rate : 25.000 fps
Color space : YUV
Chroma subsampling : 4:2:0
Bit depth : 8 bits
Scan type : Progressive
Bits/(Pixel*Frame) : 0.189
Stream size : 667 MiB (78%)
Title : Abby Sen (2016) - WEBTV Rip - x264 - AC3 [DDR]
Writing library : x264 core 146 r2538 121396c
Language : Bengali
Default : Yes
Forced : No

Audio
ID : 2
Format : AC-3
Format/Info : Audio Coding 3
Mode extension : CM (complete main)
Format settings, Endianness : Big
Codec ID : A_AC3
Duration : 2h 2mn
Bit rate mode : Constant
Bit rate : 192 Kbps
Channel(s) : 2 channels
Channel positions : Front: L R
Sampling rate : 48.0 KHz
Bit depth : 16 bits
Compression mode : Lossy
Stream size : 169 MiB (20%)
Title : Bengali 2.1 AC3 [DDR]
Language : Bengali
Default : Yes
Forced : No


:ss:



:download:








Share this topic on FacebookShare this topic on GoogleShare this topic on MySpaceShare this topic on TwitterShare this topic on Yahoo




If U like any post, then say thanks 2 d uploader by posting in his topic, adding thanks & reputes 2 him.:)

October 25, 2016, 11:37:15 PM
Reply #1
  • Semi Newbie
  • **
  • Thank You: 4
  • Reputation: -5
  • Activity:
    0%
  • Country: bd
  • Posts: 38
  • Topics: 4
  • Join Date: Jun 2016
  • ShareSpark Member

Tags:
 

Related Topics

  Subject / Started by Replies Last post
1 Replies
1903 Views
Last post March 06, 2016, 08:43:16 AM
by yogesh.sagpariya.5
0 Replies
1127 Views
Last post May 27, 2016, 05:01:51 PM
by -Ð@Rk.ÐèVi£-
0 Replies
981 Views
Last post May 27, 2016, 05:17:56 PM
by -Ð@Rk.ÐèVi£-
0 Replies
1458 Views
Last post June 06, 2016, 09:50:17 AM
by -Ð@Rk.ÐèVi£-
0 Replies
870 Views
Last post January 19, 2017, 08:36:53 PM
by PSYCHO




Back to top