+ ShareSpark.net »  :::: Bollywood Zone » Regional Movies » Punjabi Movies
|- Needhi Singh (2016) (Punjbai) Unotuched 720p WEBHD - Hon3yHD [Exclusive]


TV and Appliances

Needhi Singh (2016) (Punjbai) Unotuched 720p WEBHD - Hon3yHD [Exclusive]

0 Members and 1 Guest are viewing this topic.

November 05, 2016, 09:12:37 PM
  • *****************
  • Head Admin
  • Legend Member
  • *****
  • Topic Author
  • Thank You: 7044
  • Reputation: 3107
  • Activity:
    46.8%
  • Country: in
  • Posts: 19274
  • Topics: 11150
  • Join Date: Mar 2012
  • The Time Is Now......


Format                      : Matroska
File size                   : 2.05 GiB
Duration                    : 1 h 44 min
Overall bit rate            : 2 825 kb/s

Video
ID                          : 1
Format                      : AVC
Format/Info                 : Advanced Video Codec
Format profile              : [email protected]
Format settings, CABAC      : Yes
Format settings, ReFrames   : 3 frames
Codec ID                    : V_MPEG4/ISO/AVC
Duration                    : 1 h 44 min
Bit rate                    : 2 695 kb/s
Width                       : 1 280 pixels
Height                      : 546 pixels
Display aspect ratio        : 2.35:1
Frame rate mode             : Constant
Frame rate                  : 24.000 FPS
Stream size                 : 1.96 GiB (95%)

Audio
ID                          : 2
Format                      : AAC
Format/Info                 : Advanced Audio Codec
Format profile              : LC
Codec ID                    : A_AAC
Duration                    : 1 h 44 min
Bit rate                    : 127 kb/s
Channel(s)                  : 2 channels
Channel positions           : Front: L R
Sampling rate               : 44.1 kHz
Frame rate                  : 43.066 FPS (1024 spf)
Stream size                 : 94.7 MiB (5%)



































Share this topic on FacebookShare this topic on GoogleShare this topic on MySpaceShare this topic on TwitterShare this topic on Yahoo

« Last Edit: November 05, 2016, 10:08:30 PM by -Ð@Rk.ÐèVi£- »



Tags:
 

Related Topics

  Subject / Started by Replies Last post
0 Replies
584 Views
Last post October 04, 2016, 05:27:00 AM
by __B!RoH!_MoN__
0 Replies
994 Views
Last post November 05, 2016, 09:10:57 PM
by -Ð@Rk.ÐèVi£-
0 Replies
1245 Views
Last post November 05, 2016, 09:13:43 PM
by -Ð@Rk.ÐèVi£-
1 Replies
892 Views
Last post June 18, 2017, 05:28:12 PM
by ~DoSANJiT
1 Replies
946 Views
Last post June 18, 2017, 05:27:54 PM
by ~DoSANJiT




Back to top