+ ShareSpark.net »  :::: Bollywood Zone » Regional Movies » Punjabi Movies
|- Needhi Singh (2016) (Punjbai) Unotuched 1080p WEBHD - Hon3yHD [Exclusive]


10% SBI and 10% Discount

Needhi Singh (2016) (Punjbai) Unotuched 1080p WEBHD - Hon3yHD [Exclusive]

0 Members and 1 Guest are viewing this topic.

November 05, 2016, 09:13:43 PM
  • *****************
  • Head Admin
  • Legend Member
  • *****
  • Topic Author
  • Thank You: 7030
  • Reputation: 3095
  • Activity:
    74%
  • Country: in
  • Posts: 19244
  • Topics: 11146
  • Join Date: Mar 2012
  • The Time Is Now......



Format                      : Matroska
File size                   : 2.99 GiB
Duration                    : 1 h 44 min
Overall bit rate            : 4 117 kb/s

Video
ID                          : 1
Format                      : AVC
Format/Info                 : Advanced Video Codec
Format profile              : [email protected]
Format settings, CABAC      : Yes
Format settings, ReFrames   : 3 frames
Codec ID                    : V_MPEG4/ISO/AVC
Duration                    : 1 h 44 min
Bit rate                    : 3 988 kb/s
Width                       : 1 920 pixels
Height                      : 820 pixels
Display aspect ratio        : 2.35:1
Frame rate mode             : Constant
Frame rate                  : 24.000 FPS
Stream size                 : 2.90 GiB (97%)

Audio
ID                          : 2
Format                      : AAC
Format/Info                 : Advanced Audio Codec
Format profile              : LC
Codec ID                    : A_AAC
Duration                    : 1 h 44 min
Bit rate                    : 127 kb/s
Channel(s)                  : 2 channels
Channel positions           : Front: L R
Sampling rate               : 44.1 kHz
Frame rate                  : 43.066 FPS (1024 spf)
Stream size                 : 94.7 MiB (3%)



























Share this topic on FacebookShare this topic on GoogleShare this topic on MySpaceShare this topic on TwitterShare this topic on Yahoo

« Last Edit: November 05, 2016, 10:08:07 PM by -Ð@Rk.ÐèVi£- »



Tags:
 

Related Topics





Back to top