+ ShareSpark.net »  :::: Bollywood Zone » Regional Movies » Marathi Movies
|- Slambook 2015 1CD WebHDRip x264 AAC [TMB]


Slambook 2015 1CD WebHDRip x264 AAC [TMB]

0 Members and 1 Guest are viewing this topic.

November 14, 2016, 12:14:28 PM
  • *****************
  • Head Admin
  • Legend Member
  • *****
  • Topic Author
  • Thank You: 4534
  • Reputation: 2310
  • Activity:
    100%
  • Country: in
  • Posts: 15867
  • Topics: 9674
  • Join Date: Mar 2012
  • The Time Is Now......
Torrable - One stop for all your download & upload needs. It's smart, easy and free.




General
Complete name : Slambook 2015 1CD WebHDRip x264 AAC [TMB].mp4
Format : MPEG-4
Format profile : Base Media / Version 2
Codec ID : mp42 (isom/iso2/avc1/mp41)
File size : 699 MiB
Duration : 2 h 16 min
Overall bit rate mode : Variable
Overall bit rate : 713 kb/s

Video
Format : AVC
Format/Info : Advanced Video Codec
Format profile : [email protected]
Format settings, CABAC : Yes
Format settings, ReFrames : 4 frames
Codec ID : avc1
Codec ID/Info : Advanced Video Coding
Duration : 2 h 16 min
Bit rate : 553 kb/s
Width : 640 pixels
Height : 274 pixels
Display aspect ratio : 2.35:1
Original display aspect rat : 2.35:1
Frame rate mode : Variable
Frame rate : 23.976 FPS
Minimum frame rate : 14.286 FPS
Maximum frame rate : 25.000 FPS
Color space : YUV
Chroma subsampling : 4:2:0
Bit depth : 8 bits
Scan type : Progressive
Bits/(Pixel*Frame) : 0.132
Stream size : 537 MiB (77%)
Writing library : x264 core 142 r2479 dd79a61

Audio
Format : AAC
Format/Info : Advanced Audio Codec
Format profile : LC
Codec ID : 40
Duration : 2 h 16 min
Bit rate mode : Variable
Bit rate : 159 kb/s
Channel(s) : 2 channels
Channel positions : Front: L R
Sampling rate : 44.1 kHz
Frame rate : 43.066 FPS (1024 spf)
Compression mode : Lossy
Stream size : 156 MiB (22%)

Sample in Torrent...

Ripper : Manojvb































Share this topic on FacebookShare this topic on GoogleShare this topic on MySpaceShare this topic on TwitterShare this topic on Yahoo



Thanks given by:


November 16, 2016, 04:18:31 PM
Reply #1
  • Team SSX
  • Legend Member
  • ***
  • Thank You: 900
  • Reputation: 143
  • Activity:
    100%
  • Country: in
  • Posts: 1771
  • Topics: 1220
  • Join Date: Sep 2016
  • (: EnJOy ThE LiFe :)

December 22, 2016, 03:06:07 PM
Reply #2
  • Senior Member
  • ***
  • Thank You: 60
  • Reputation: 5
  • Activity:
    54.4%
  • Country: in
  • Posts: 271
  • Topics: 133
  • Join Date: Dec 2016
  • ShareSpark Member

Tags:
 

Related Topics

  Subject / Started by Replies Last post
0 Replies
397 Views
Last post February 12, 2015, 04:20:11 PM
by Bozdar Jaan
0 Replies
429 Views
Last post July 27, 2015, 02:51:42 PM
by Ńαʌєєи
1 Replies
873 Views
Last post August 20, 2016, 12:28:10 PM
by shahzaibjaan
2 Replies
363 Views
Last post November 17, 2016, 08:59:07 AM
by abhi116
2 Replies
482 Views
Last post December 22, 2016, 03:06:56 PM
by saskay




Back to top