+ ShareSpark.net »  :::: Bollywood Zone » Regional Movies » Marathi Movies
|- Rajwade And Sons 2015 1CD WebHDRip x264 AAC [TMB]


Rajwade And Sons 2015 1CD WebHDRip x264 AAC [TMB]

0 Members and 1 Guest are viewing this topic.

November 14, 2016, 12:16:39 PM
  • *****************
  • Head Admin
  • Legend Member
  • *****
  • Topic Author
  • Thank You: 4352
  • Reputation: 2279
  • Activity:
    100%
  • Country: in
  • Posts: 15405
  • Topics: 9461
  • Join Date: Mar 2012
  • The Time Is Now......
Torrable - One stop for all your download & upload needs. It's smart, easy and free.




General
Complete name : Rajwade And Sons 2015 1CD WebHDRip x264 AAC [TMB].mp4
Format : MPEG-4
Format profile : Base Media / Version 2
Codec ID : mp42 (isom/iso2/avc1/mp41)
File size : 702 MiB
Duration : 1 h 59 min
Overall bit rate mode : Variable
Overall bit rate : 822 kb/s

Video
Format : AVC
Format/Info : Advanced Video Codec
Format profile : [email protected]
Format settings, CABAC : Yes
Format settings, ReFrames : 4 frames
Codec ID : avc1
Codec ID/Info : Advanced Video Coding
Duration : 1 h 59 min
Bit rate : 657 kb/s
Width : 640 pixels
Height : 272 pixels
Display aspect ratio : 2.35:1
Original display aspect rat : 2.35:1
Frame rate mode : Variable
Frame rate : 23.976 FPS
Minimum frame rate : 14.286 FPS
Maximum frame rate : 25.000 FPS
Color space : YUV
Chroma subsampling : 4:2:0
Bit depth : 8 bits
Scan type : Progressive
Bits/(Pixel*Frame) : 0.157
Stream size : 560 MiB (80%)
Writing library : x264 core 142 r2479 dd79a61

Audio
Format : AAC
Format/Info : Advanced Audio Codec
Format profile : LC
Codec ID : 40
Duration : 1 h 59 min
Bit rate mode : Variable
Bit rate : 159 kb/s
Channel(s) : 2 channels
Channel positions : Front: L R
Sampling rate : 48.0 kHz
Frame rate : 46.875 FPS (1024 spf)
Compression mode : Lossy
Stream size : 136 MiB (19%)


Sample in Torrent...

Source : Untouched 1080p [email protected]

Ripper : Manojvb






































Share this topic on FacebookShare this topic on GoogleShare this topic on MySpaceShare this topic on TwitterShare this topic on Yahoo



Thanks given by:


November 15, 2016, 07:42:11 PM
Reply #1
  • Special Member
  • ****
  • Thank You: 141
  • Reputation: 58
  • Activity:
    100%
  • Country: in
  • Posts: 743
  • Topics: 366
  • Join Date: Sep 2016
  • ShareSpark Member

December 22, 2016, 03:06:56 PM
Reply #2
  • Begginer
  • **
  • Thank You: 0
  • Reputation: 0
  • Activity:
    10%
  • Country: in
  • Posts: 50
  • Topics: 3
  • Join Date: Dec 2016
  • ShareSpark Member

Tags:
 

Related Topics





Back to top