+ ShareSpark.net »  :::: Dubbed Zone (Dubbed English in Hindi) » English Movies Dubbed in Hindi » Animation Movies
|- Meet The Robinsons 2007 BluRay 720p Esub Dual Audio English Hindi


Meet The Robinsons 2007 BluRay 720p Esub Dual Audio English Hindi

0 Members and 1 Guest are viewing this topic.

November 26, 2016, 06:12:41 PM
  • Devoted Member
  • **
  • Topic Author
  • Thank You: 91
  • Reputation: 12
  • Activity:
    30.2%
  • Country: us
  • Posts: 125
  • Topics: 125
  • Join Date: Nov 2016
  • ShareSpark Member
Torrable - One stop for all your download & upload needs. It's smart, easy and free.
:title:


Meet The Robinsons 2007 BluRay 720p Esub Dual Audio English Hindi






:info:



Complete name                            : Meet The Robinsons 2007 BluRay 720p Esub Dual Audio English Hindi.mkv
Format                                   : Matroska
Format version                           : Version 4 / Version 2
File size                                : 827 MiB
Duration                                 : 1 h 34 min
Overall bit rate                         : 1 224 kb/s
Encoded date                             : UTC 2016-11-26 08:19:33
Writing application                      : mkvmerge v8.2.0 ('World of Adventure') 64bit
Writing library                          : libebml v1.3.1 + libmatroska v1.4.2

Video
ID                                       : 1
Format                                   : AVC
Format/Info                              : Advanced Video Codec
Format profile                           : [email protected]
Format settings, CABAC                   : Yes
Format settings, ReFrames                : 9 frames
Codec ID                                 : V_MPEG4/ISO/AVC
Duration                                 : 1 h 34 min
Bit rate                                 : 936 kb/s
Width                                    : 1 280 pixels
Height                                   : 720 pixels
Display aspect ratio                     : 16:9
Frame rate mode                          : Constant
Frame rate                               : 23.976 (24000/1001) FPS
Color space                              : YUV
Chroma subsampling                       : 4:2:0
Bit depth                                : 8 bits
Scan type                                : Progressive
Bits/(Pixel*Frame)                       : 0.042
Stream size                              : 632 MiB (76%)
Writing library                          : x264 core 125 r2200 999b753
Language                                 : English
Default                                  : Yes
Forced                                   : No

Audio #1
ID                                       : 2
Format                                   : AC-3
Format/Info                              : Audio Coding 3
Mode extension                           : CM (complete main)
Format settings, Endianness              : Big
Codec ID                                 : A_AC3
Duration                                 : 1 h 33 min
Bit rate mode                            : Constant
Bit rate                                 : 192 kb/s
Channel(s)                               : 2 channels
Channel positions                        : Front: L R
Sampling rate                            : 48.0 kHz
Frame rate                               : 31.250 FPS (1536 spf)
Bit depth                                : 16 bits
Compression mode                         : Lossy
Stream size                              : 129 MiB (16%)
Language                                 : Hindi
Default                                  : Yes
Forced                                   : No

Audio #2
ID                                       : 3
Format                                   : AAC
Format/Info                              : Advanced Audio Codec
Format profile                           : LC
Codec ID                                 : A_AAC
Duration                                 : 1 h 34 min
Bit rate                                 : 96.0 kb/s
Channel(s)                               : 2 channels
Channel positions                        : Front: L R
Sampling rate                            : 48.0 kHz
Frame rate                               : 46.875 FPS (1024 spf)
Compression mode                         : Lossy
Stream size                              : 64.9 MiB (8%)
Language                                 : English
Default                                  : No
Forced                                   : No




:ss:





:download:



Watch Online







Single link







Share this topic on FacebookShare this topic on GoogleShare this topic on MySpaceShare this topic on TwitterShare this topic on Yahoo



Thanks given by:


November 28, 2016, 08:23:18 AM
Reply #1
  • Devoted Member
  • **
  • Thank You: 6
  • Reputation: 5
  • Activity:
    9%
  • Country: in
  • Posts: 188
  • Topics: 8
  • Join Date: Mar 2012
  • ShareSpark Member.. Contact me 4 anything.

Tags:
 

Related Topics

  Subject / Started by Replies Last post
0 Replies
907 Views
Last post July 22, 2012, 05:39:31 PM
by мя.иαωαz мυgнαl
9 Replies
806 Views
Last post November 26, 2016, 07:50:34 AM
by crmodi86
0 Replies
360 Views
Last post August 19, 2014, 12:15:34 PM
by [email protected]@тιи
2 Replies
1058 Views
Last post October 10, 2014, 05:07:04 PM
by Snyper
5 Replies
685 Views
Last post March 10, 2015, 09:53:45 AM
by dugdugster




Back to top