+ ShareSpark.net »  :::: Hollywood Zone » TV Shows
|- Teen.Wolf.S06E02.720p.HDTV.x264-SVA[PRiME]


Teen.Wolf.S06E02.720p.HDTV.x264-SVA[PRiME]

0 Members and 1 Guest are viewing this topic.

November 30, 2016, 09:04:15 AM
  • *****************
  • Head Admin
  • Legend Member
  • *****
  • Topic Author
  • Thank You: 5155
  • Reputation: 2406
  • Activity:
    81.2%
  • Country: in
  • Posts: 16798
  • Topics: 10204
  • Join Date: Mar 2012
  • The Time Is Now......
Teen.Wolf.S06E02.720p.HDTV.x264-SVA[PRiME]

Complete name : Teen.Wolf.S06E02.720p.HDTV.x264-SVA[PRiME].mkv
Format : Matroska
Format version : Version 4 / Version 2
File size : 798 MiB
Duration : 40 min 50 s
Overall bit rate : 2 731 kb/s
Encoded date : UTC 2016-11-23 02:57:25
Writing application : FastLE v2.5.0 - AVS
Writing library : libx264 + libebml + libmatroska + libfastrar

Video
ID : 1
Format : AVC
Format/Info : Advanced Video Codec
Format profile : [email protected]
Format settings, CABAC : Yes
Format settings, ReFrames : 5 frames
Codec ID : V_MPEG4/ISO/AVC
Duration : 40 min 50 s
Bit rate : 2 292 kb/s
Width : 1 280 pixels
Height : 720 pixels
Display aspect ratio : 16:9
Frame rate mode : Constant
Frame rate : 23.976 (24000/1001) FPS
Color space : YUV
Chroma subsampling : 4:2:0
Bit depth : 8 bits
Scan type : Progressive
Bits/(Pixel*Frame) : 0.104
Stream size : 669 MiB (84%)
Writing library : x264 core 148 r2721 72d53ab
Encoding settings : cabac=1 / ref=5 / deblock=1:0:0 / analyse=0x3:0x113 / me=hex / subme=8 / psy=1 / psy_rd=1.00:0.00 / mixed_ref=1 / me_range=16 / chroma_me=1 / trellis=2 / 8x8dct=1 / cqm=0 / deadzone=21,11 / fast_pskip=1 / chroma_qp_offset=-2 / threads=18 / lookahead_threads=3 / sliced_threads=0 / nr=0 / decimate=1 / interlaced=0 / bluray_compat=0 / constrained_intra=0 / bframes=3 / b_pyramid=2 / b_adapt=1 / b_bias=0 / direct=3 / weightb=1 / open_gop=0 / weightp=2 / keyint=250 / keyint_min=23 / scenecut=40 / intra_refresh=0 / rc_lookahead=50 / rc=crf / mbtree=1 / crf=18.0 / qcomp=0.60 / qpmin=0 / qpmax=69 / qpstep=4 / ip_ratio=1.40 / aq=1:1.00
Default : Yes
Forced : No
Color range : Limited
Matrix coefficients : BT.709

Audio
ID : 2
Format : AC-3
Format/Info : Audio Coding 3
Mode extension : CM (complete main)
Format settings, Endianness : Big
Codec ID : A_AC3
Duration : 40 min 50 s
Bit rate mode : Constant
Bit rate : 384 kb/s
Channel(s) : 2 channels
Channel positions : Front: L R
Sampling rate : 48.0 kHz
Frame rate : 31.250 FPS (1536 spf)
Compression mode : Lossy
Stream size : 112 MiB (14%)
Default : Yes
Forced : No































Share this topic on FacebookShare this topic on GoogleShare this topic on MySpaceShare this topic on TwitterShare this topic on Yahoo




November 30, 2016, 09:05:16 AM
Reply #1
  • *****************
  • Head Admin
  • Legend Member
  • *****
  • Topic Author
  • Thank You: 5155
  • Reputation: 2406
  • Activity:
    81.2%
  • Country: in
  • Posts: 16798
  • Topics: 10204
  • Join Date: Mar 2012
  • The Time Is Now......
Teen.Wolf.S06E02.1080p.WEB.x264-TURBO[PRiME]

Complete name : Teen.Wolf.S06E02.1080p.WEB.x264-TURBO[PRiME].mkv
Format : Matroska
Format version : Version 4 / Version 2
File size : 1.34 GiB
Duration : 41 min 32 s
Overall bit rate : 4 617 kb/s
Encoded date : UTC 2010-02-22 21:41:29
Writing application : no_variable_data
Writing library : no_variable_data

Video
ID : 1
Format : AVC
Format/Info : Advanced Video Codec
Format profile : [email protected]
Format settings, CABAC : Yes
Format settings, ReFrames : 4 frames
Codec ID : V_MPEG4/ISO/AVC
Duration : 41 min 32 s
Width : 1 920 pixels
Height : 1 080 pixels
Display aspect ratio : 16:9
Frame rate mode : Constant
Frame rate : 23.976 (24000/1001) FPS
Color space : YUV
Chroma subsampling : 4:2:0
Bit depth : 8 bits
Scan type : Progressive
Title : Superposition
Writing library : x264 core 148
Encoding settings : cabac=1 / ref=4 / deblock=1:0:0 / analyse=0x3:0x113 / me=umh / subme=10 / psy=1 / psy_rd=1.00:0.15 / mixed_ref=1 / me_range=32 / chroma_me=1 / trellis=2 / 8x8dct=1 / cqm=0 / deadzone=21,11 / fast_pskip=1 / chroma_qp_offset=-3 / threads=24 / lookahead_threads=6 / sliced_threads=0 / nr=0 / decimate=1 / interlaced=0 / bluray_compat=0 / constrained_intra=0 / bframes=3 / b_pyramid=0 / b_adapt=2 / b_bias=0 / direct=3 / weightb=1 / open_gop=0 / weightp=2 / keyint=48 / keyint_min=4 / scenecut=0 / intra_refresh=0 / rc_lookahead=48 / rc=crf / mbtree=1 / crf=19.0 / qcomp=0.75 / qpmin=10 / qpmax=51 / qpstep=4 / vbv_maxrate=5000 / vbv_bufsize=10000 / crf_max=0.0 / nal_hrd=none / filler=0 / ip_ratio=1.40 / aq=1:0.80
Language : English
Default : Yes
Forced : No

Audio
ID : 2
Format : AAC
Format/Info : Advanced Audio Codec
Format profile : LC
Codec ID : A_AAC
Duration : 41 min 32 s
Channel(s) : 2 channels
Channel positions : Front: L R
Sampling rate : 48.0 kHz
Frame rate : 46.875 FPS (1024 spf)
Compression mode : Lossy
Title : Superposition
Language : English
Default : Yes
Forced : No

Text
ID : 3
Format : UTF-8
Codec ID : S_TEXT/UTF8
Codec ID/Info : UTF-8 Plain Text
Title : Superposition
Language : English
Default : No
Forced : No



























November 30, 2016, 09:06:15 AM
Reply #2
  • *****************
  • Head Admin
  • Legend Member
  • *****
  • Topic Author
  • Thank You: 5155
  • Reputation: 2406
  • Activity:
    81.2%
  • Country: in
  • Posts: 16798
  • Topics: 10204
  • Join Date: Mar 2012
  • The Time Is Now......
Teen.Wolf.S06E02.WEBRip.XviD-FUM


[Format]: AVI
[Duration]: 41mn 32s
[Resolution]: 624 x 352 pixels
[Display aspect ratio]: 16:9
[Frame rate]: 23.976 fps

















Tags:
 

Related Topics

  Subject / Started by Replies Last post
0 Replies
333 Views
Last post July 01, 2015, 05:27:00 PM
by YOGESH19
0 Replies
353 Views
Last post July 02, 2015, 01:50:20 PM
by YOGESH19
3 Replies
518 Views
Last post November 18, 2016, 09:23:48 AM
by -Ð@Rk.ÐèVi£-
1 Replies
520 Views
Last post November 30, 2016, 10:41:35 AM
by -Ð@Rk.ÐèVi£-
0 Replies
186 Views
Last post August 07, 2017, 09:55:14 AM
by ~~Ank!t~~




Back to top