+ ShareSpark.net »  :::: Hollywood Zone » Hollywood Movies (Original Rips) » High Resolution Movies
|- The.Accountant.2016.720p.KORSUB.HDRip.XviD.MP3-STUTTERSHIT


The.Accountant.2016.720p.KORSUB.HDRip.XviD.MP3-STUTTERSHIT

0 Members and 1 Guest are viewing this topic.

December 03, 2016, 05:45:12 PM
  • *****************
  • Head Admin
  • Legend Member
  • *****
  • Topic Author
  • Thank You: 4659
  • Reputation: 2331
  • Activity:
    100%
  • Country: in
  • Posts: 16139
  • Topics: 9785
  • Join Date: Mar 2012
  • The Time Is Now......
Torrable - One stop for all your download & upload needs. It's smart, easy and free.


Video
ID                                       : 0
Format                                   : MPEG-4 Visual
Format profile                           : [email protected]
Format settings, BVOP                    : No
Format settings, QPel                    : No
Format settings, GMC                     : No warppoints
Format settings, Matrix                  : Default (H.263)
Codec ID                                 : XVID
Codec ID/Hint                            : XviD
Duration                                 : 2h 7mn
Bit rate                                 : 2 948 Kbps
Width                                    : 1 280 pixels
Height                                   : 536 pixels
Display aspect ratio                     : 2.40:1
Frame rate                               : 29.970 (29970/1000) fps
Color space                              : YUV
Chroma subsampling                       : 4:2:0
Bit depth                                : 8 bits
Scan type                                : Progressive
Compression mode                         : Lossy
Bits/(Pixel*Frame)                       : 0.143
Stream size                              : 2.63 GiB (93%)
Writing library                          : Lavc57.24.102

Audio
ID                                       : 1
Format                                   : MPEG Audio
Format version                           : Version 1
Format profile                           : Layer 3
Mode                                     : Joint stereo
Mode extension                           : MS Stereo
Codec ID                                 : 55
Codec ID/Hint                            : MP3
Duration                                 : 2h 7mn
Bit rate mode                            : Constant
Bit rate                                 : 192 Kbps
Channel(s)                               : 2 channels
Sampling rate                            : 44.1 KHz
Compression mode                         : Lossy
Stream size                              : 176 MiB (6%)
Alignment                                : Aligned on interleaves
Interleave, duration                     : 26 ms (0.78 video frame)
Interleave, preload duration             : 522 ms
Writing library                          : LAME3.99.5



















Share this topic on FacebookShare this topic on GoogleShare this topic on MySpaceShare this topic on TwitterShare this topic on Yahoo




Tags:
 

Related Topics

  Subject / Started by Replies Last post
0 Replies
378 Views
Last post September 27, 2016, 06:19:55 PM
by -Ð@Rk.ÐèVi£-
0 Replies
290 Views
Last post December 03, 2016, 05:40:09 PM
by -Ð@Rk.ÐèVi£-
1 Replies
572 Views
Last post February 20, 2017, 01:44:05 AM
by vish790
0 Replies
226 Views
Last post February 19, 2017, 08:53:42 PM
by PSYCHO
0 Replies
109 Views
Last post March 17, 2017, 06:25:29 AM
by PSYCHO




Back to top