+ ShareSpark.net »  :::: Bollywood Zone » Regional Movies » Marathi Movies
|- Sairat.(2016).-.720p.-.HDRip.-.x264.-.AC3.5.1.-.ESub.-.[EXCLUSIVE].-.[SIDDU]


100% DTH Offer

Sairat.(2016).-.720p.-.HDRip.-.x264.-.AC3.5.1.-.ESub.-.[EXCLUSIVE].-.[SIDDU]

0 Members and 1 Guest are viewing this topic.

December 04, 2016, 02:18:32 AM
  • Devoted Member
  • **
  • Topic Author
  • Thank You: 98
  • Reputation: 14
  • Activity:
    0%
  • Country: us
  • Posts: 125
  • Topics: 129
  • Join Date: Nov 2016
  • ShareSpark Member
:title:


Sairat.(2016).-.720p.-.HDRip.-.x264.-.AC3.5.1.-.ESub.-.[EXCLUSIVE].-.[SIDDU]








:info:



...::::SOURCE / @SIDDU (OWN)::::...



Sairat (2016) - 720p - HDRip - x264 - AC3 5.1 - ESub - [EXCLUSIVE] - [SIDDU]

* AC3 5.1 / Marathi / AUDIO *  with  * English Subtitles *


This Print is 200% Better Than DVDRip



Format                      : Matroska
Format version              : Version 4 / Version 2
File size                   : 1.45 GiB
Duration                    : 2h 53mn
Overall bit rate            : 1 195 Kbps
Movie name                  : Siddu
Encoded date                : UTC 2016-11-30 17:17:07
Writing library             : libebml v1.3.3 + libmatroska v1.4.4

Video
ID                          : 1
Format                      : AVC
Format/Info                 : Advanced Video Codec
Format profile              : [email protected]
Format settings, CABAC      : Yes
Format settings, ReFrames   : 4 frames
Codec ID                    : V_MPEG4/ISO/AVC
Duration                    : 2h 53mn
Bit rate                    : 1 002 Kbps
Width                       : 1 280 pixels
Height                      : 544 pixels
Display aspect ratio        : 2.35:1
Original display aspect rat : 2.35:1
Frame rate mode             : Constant
Frame rate                  : 24.000 fps
Color space                 : YUV
Chroma subsampling          : 4:2:0
Bit depth                   : 8 bits
Scan type                   : Progressive
Bits/(Pixel*Frame)          : 0.060
Stream size                 : 1.21 GiB (84%)
Title                       : Siddu
Writing library             : x264 core 148 r2638 7599210
Default                     : Yes
Forced                      : No

Audio
ID                          : 2
Format                      : AC-3
Format/Info                 : Audio Coding 3
Mode extension              : CM (complete main)
Format settings, Endianness : Big
Codec ID                    : A_AC3
Duration                    : 2h 53mn
Bit rate mode               : Constant
Bit rate                    : 192 Kbps
Channel(s)                  : 6 channels
Channel positions           : Front: L C R, Side: L R, LFE
Sampling rate               : 48.0 KHz
Frame rate                  : 31.250 fps (1536 spf)
Compression mode            : Lossy
Stream size                 : 238 MiB (16%)
Title                       : Siddu
Language                    : Marathi
Default                     : Yes
Forced                      : No

Text
ID                          : 3
Format                      : UTF-8
Codec ID                    : S_TEXT/UTF8
Codec ID/Info               : UTF-8 Plain Text
Duration                    : 2h 46mn
Bit rate                    : 76 bps
Count of elements           : 1606
Stream size                 : 94.1 KiB (0%)
Title                       : Siddu
Language                    : English
Default                     : Yes
Forced                      : No




:ss:








:download:



Watch Online









Single link














Share this topic on FacebookShare this topic on GoogleShare this topic on MySpaceShare this topic on TwitterShare this topic on Yahoo



Thanks given by:


October 15, 2017, 09:40:18 PM
Reply #1
  • Newbie
  • **
  • Thank You: 0
  • Reputation: 0
  • Activity:
    0%
  • Country: in
  • Posts: 2
  • Topics: 0
  • Join Date: Aug 2017
  • ShareSpark Member
Please Add More Free Links Like userscloud..  :newhere: :please: :please: :please: :please: :please: :help:
orelse add torrent..

Tags:
 

Related Topics

  Subject / Started by Replies Last post
0 Replies
1239 Views
Last post July 30, 2016, 12:24:46 AM
by Abhik
0 Replies
782 Views
Last post January 08, 2017, 12:04:26 PM
by Abhisona
2 Replies
1463 Views
Last post July 25, 2018, 09:33:46 PM
by greenlight
2 Replies
1038 Views
Last post September 05, 2017, 05:07:02 PM
by s543210
1 Replies
1212 Views
Last post September 06, 2017, 11:46:50 PM
by Vagabond




Back to top