+ ShareSpark.net »  :::: Hollywood Zone » TV Shows
|- The.Walking.Dead.S07E07.HDTV.x264-FUM[ettv]


The.Walking.Dead.S07E07.HDTV.x264-FUM[ettv]

0 Members and 1 Guest are viewing this topic.

December 05, 2016, 03:32:45 PM
  • *****************
  • Head Admin
  • Legend Member
  • *****
  • Topic Author
  • Thank You: 5172
  • Reputation: 2412
  • Activity:
    80%
  • Country: in
  • Posts: 16800
  • Topics: 10206
  • Join Date: Mar 2012
  • The Time Is Now......

The.Walking.Dead.S07E07.HDTV.x264-FUM



[Format]: MPEG-4
[Duration]: 1h 2mn
[Resolution]: 720 x 404 pixels
[Display aspect ratio]: 16:9
[Frame rate mode]: Constant
[Frame rate]: 23.976 fps

























Share this topic on FacebookShare this topic on GoogleShare this topic on MySpaceShare this topic on TwitterShare this topic on Yahoo




December 05, 2016, 03:33:47 PM
Reply #1
  • *****************
  • Head Admin
  • Legend Member
  • *****
  • Topic Author
  • Thank You: 5172
  • Reputation: 2412
  • Activity:
    80%
  • Country: in
  • Posts: 16800
  • Topics: 10206
  • Join Date: Mar 2012
  • The Time Is Now......
The.Walking.Dead.S07E07.WEB-DL.XviD-FUM


[Format]: AVI
[Duration]: 1h 2mn
[Resolution]: 624 x 352 pixels
[Display aspect ratio]: 16:9
[Frame rate]: 23.976 fps
















December 05, 2016, 03:36:16 PM
Reply #2
  • *****************
  • Head Admin
  • Legend Member
  • *****
  • Topic Author
  • Thank You: 5172
  • Reputation: 2412
  • Activity:
    80%
  • Country: in
  • Posts: 16800
  • Topics: 10206
  • Join Date: Mar 2012
  • The Time Is Now......
The.Walking.Dead.S07E07.1080p.WEB-DL.x264-FUM


[Format]: Matroska
[Duration]: 1h 2mn
[Resolution]: 1 916 x 1 076 pixels
[Display aspect ratio]: 16:9
[Frame rate mode]: Constant
[Frame rate]: 23.976 fps






















December 05, 2016, 03:37:52 PM
Reply #3
  • *****************
  • Head Admin
  • Legend Member
  • *****
  • Topic Author
  • Thank You: 5172
  • Reputation: 2412
  • Activity:
    80%
  • Country: in
  • Posts: 16800
  • Topics: 10206
  • Join Date: Mar 2012
  • The Time Is Now......
The.Walking.Dead.S07E07.720p.HDTV.x264-AVS[PRiME]


Complete name : The.Walking.Dead.S07E07.720p.HDTV.x264-AVS[PRiME].mkv
Format : Matroska
Format version : Version 4 / Version 2
File size : 2.96 GiB
Duration : 1 h 2 min
Overall bit rate : 6 828 kb/s
Encoded date : UTC 2016-12-05 02:08:22
Writing application : FastLE v2.5.0 - AVS
Writing library : libx264 + libebml + libmatroska + libfastrar

Video
ID : 1
Format : AVC
Format/Info : Advanced Video Codec
Format profile : [email protected]
Format settings, CABAC : Yes
Format settings, ReFrames : 5 frames
Codec ID : V_MPEG4/ISO/AVC
Duration : 1 h 2 min
Bit rate : 6 308 kb/s
Width : 1 280 pixels
Height : 718 pixels
Display aspect ratio : 16:9
Frame rate mode : Constant
Frame rate : 23.976 (24000/1001) FPS
Color space : YUV
Chroma subsampling : 4:2:0
Bit depth : 8 bits
Scan type : Progressive
Bits/(Pixel*Frame) : 0.286
Stream size : 2.74 GiB (92%)
Writing library : x264 core 148 r2721 72d53ab
Encoding settings : cabac=1 / ref=5 / deblock=1:0:0 / analyse=0x3:0x113 / me=hex / subme=8 / psy=1 / psy_rd=1.00:0.00 / mixed_ref=1 / me_range=16 / chroma_me=1 / trellis=2 / 8x8dct=1 / cqm=0 / deadzone=21,11 / fast_pskip=1 / chroma_qp_offset=-2 / threads=22 / lookahead_threads=3 / sliced_threads=0 / nr=0 / decimate=1 / interlaced=0 / bluray_compat=0 / constrained_intra=0 / bframes=3 / b_pyramid=2 / b_adapt=1 / b_bias=0 / direct=3 / weightb=1 / open_gop=0 / weightp=2 / keyint=250 / keyint_min=23 / scenecut=40 / intra_refresh=0 / rc_lookahead=50 / rc=crf / mbtree=1 / crf=18.0 / qcomp=0.60 / qpmin=0 / qpmax=69 / qpstep=4 / ip_ratio=1.40 / aq=1:1.00
Default : Yes
Forced : No
Color range : Limited
Matrix coefficients : BT.709

Audio
ID : 2
Format : AC-3
Format/Info : Audio Coding 3
Mode extension : CM (complete main)
Format settings, Endianness : Big
Codec ID : A_AC3
Duration : 1 h 2 min
Bit rate mode : Constant
Bit rate : 384 kb/s
Channel(s) : 6 channels
Channel positions : Front: L C R, Side: L R, LFE
Sampling rate : 48.0 kHz
Frame rate : 31.250 FPS (1536 spf)
Compression mode : Lossy
Stream size : 171 MiB (6%)
Default : Yes
Forced : No























December 05, 2016, 03:38:56 PM
Reply #4
  • *****************
  • Head Admin
  • Legend Member
  • *****
  • Topic Author
  • Thank You: 5172
  • Reputation: 2412
  • Activity:
    80%
  • Country: in
  • Posts: 16800
  • Topics: 10206
  • Join Date: Mar 2012
  • The Time Is Now......
The.Walking.Dead.S07E07.HDTV.x264-FLEET[PRiME]


Complete name : The.Walking.Dead.S07E07.HDTV.x264-FLEET[PRiME].mkv
Format : Matroska
Format version : Version 2
File size : 569 MiB
Duration : 1 h 2 min
Overall bit rate : 1 280 kb/s
Writing application : x264.exe
Writing library : mkv2rls x264-tv version built on 2016.10.12

Video
ID : 1
Format : AVC
Format/Info : Advanced Video Codec
Format profile : [email protected]
Format settings, CABAC : Yes
Format settings, ReFrames : 5 frames
Codec ID : V_MPEG4/ISO/AVC
Duration : 1 h 2 min
Width : 720 pixels
Height : 404 pixels
Display aspect ratio : 16:9
Frame rate mode : Constant
Frame rate : 23.976 (24000/1001) FPS
Color space : YUV
Chroma subsampling : 4:2:0
Bit depth : 8 bits
Scan type : Progressive
Writing library : x264 core 148 r2721 72d53ab
Encoding settings : cabac=1 / ref=5 / deblock=1:0:0 / analyse=0x3:0x113 / me=hex / subme=8 / psy=1 / psy_rd=1.00:0.00 / mixed_ref=1 / me_range=16 / chroma_me=1 / trellis=2 / 8x8dct=1 / cqm=0 / deadzone=21,11 / fast_pskip=1 / chroma_qp_offset=-2 / threads=13 / lookahead_threads=2 / sliced_threads=0 / nr=0 / decimate=1 / interlaced=0 / bluray_compat=0 / constrained_intra=0 / bframes=3 / b_pyramid=2 / b_adapt=1 / b_bias=0 / direct=3 / weightb=1 / open_gop=0 / weightp=2 / keyint=250 / keyint_min=23 / scenecut=40 / intra_refresh=0 / rc_lookahead=50 / rc=crf / mbtree=1 / crf=19.0 / qcomp=0.60 / qpmin=0 / qpmax=69 / qpstep=4 / ip_ratio=1.40 / aq=1:1.00
Language : English
Default : Yes
Forced : No
Color range : Limited
Matrix coefficients : BT.709

Audio
ID : 2
Format : AAC
Format/Info : Advanced Audio Codec
Format profile : LC
Codec ID : A_AAC
Duration : 1 h 2 min
Channel(s) : 2 channels
Channel positions : Front: L R
Sampling rate : 48.0 kHz
Frame rate : 46.875 FPS (1024 spf)
Compression mode : Lossy
Language : English
Default : Yes
Forced : No

















Tags:
 

Related Topics

  Subject / Started by Replies Last post
3 Replies
614 Views
Last post November 23, 2015, 05:35:03 PM
by -Ð@Rk.ÐèVi£-
3 Replies
554 Views
Last post November 30, 2015, 10:37:51 AM
by -Ð@Rk.ÐèVi£-
1 Replies
716 Views
Last post November 28, 2016, 02:18:04 PM
by -Ð@Rk.ÐèVi£-
4 Replies
927 Views
Last post February 14, 2017, 08:10:28 AM
by -Ð@Rk.ÐèVi£-
1 Replies
625 Views
Last post March 06, 2017, 10:49:01 AM
by -Ð@Rk.ÐèVi£-




Back to top