+ ShareSpark.net »  :::: Bollywood Zone » Regional Movies » Marathi Movies
|- Kanha 2016 Untouched Cam x264 AAC ESubs [TMB]


Kanha 2016 Untouched Cam x264 AAC ESubs [TMB]

0 Members and 1 Guest are viewing this topic.

December 05, 2016, 04:42:35 PM
  • *****************
  • Head Admin
  • Legend Member
  • *****
  • Topic Author
  • Thank You: 4418
  • Reputation: 2297
  • Activity:
    100%
  • Country: in
  • Posts: 15674
  • Topics: 9591
  • Join Date: Mar 2012
  • The Time Is Now......
Torrable - One stop for all your download & upload needs. It's smart, easy and free.





General
Complete name : Kanha 2016 Untouched Cam x264 AAC [TMB].mp4
Format : MPEG-4
Format profile : Base Media / Version 2
Codec ID : mp42 (isom/mp42)
File size : 260 MiB
Duration : 1 h 45 min
Overall bit rate mode : Variable
Overall bit rate : 344 kb/s

Video
Format : AVC
Format/Info : Advanced Video Codec
Format profile : [email protected]
Format settings, CABAC : No
Format settings, ReFrames : 1 frame
Codec ID : avc1
Codec ID/Info : Advanced Video Coding
Duration : 1 h 45 min
Bit rate : 245 kb/s
Maximum bit rate : 902 kb/s
Width : 324 pixels
Height : 240 pixels
Display aspect ratio : 4:3
Frame rate mode : Variable
Frame rate : 24.870 FPS
Minimum frame rate : 8.333 FPS
Maximum frame rate : 25.000 FPS
Color space : YUV
Chroma subsampling : 4:2:0
Bit depth : 8 bits
Scan type : Progressive
Bits/(Pixel*Frame) : 0.127
Stream size : 186 MiB (71%)

Audio
Format : AAC
Format/Info : Advanced Audio Codec
Format profile : LC
Codec ID : 40
Duration : 1 h 45 min
Bit rate mode : Variable
Bit rate : 96.0 kb/s
Maximum bit rate : 103 kb/s
Channel(s) : 2 channels
Channel positions : Front: L R
Sampling rate : 44.1 kHz
Frame rate : 43.066 FPS (1024 spf)
Compression mode : Lossy
Stream size : 72.7 MiB (28%)



































Share this topic on FacebookShare this topic on GoogleShare this topic on MySpaceShare this topic on TwitterShare this topic on Yahoo



Thanks given by:


Tags:
 

Related Topics

  Subject / Started by Replies Last post
0 Replies
523 Views
Last post May 03, 2016, 04:07:37 PM
by kkk
0 Replies
667 Views
Last post May 03, 2016, 04:20:52 PM
by тнє ωαll 81317
0 Replies
352 Views
Last post August 08, 2016, 06:13:27 PM
by -Ð@Rk.ÐèVi£-
1 Replies
266 Views
Last post August 18, 2016, 07:19:10 PM
by shahzaibjaan
3 Replies
573 Views
Last post November 19, 2016, 12:19:45 PM
by -Ð@Rk.ÐèVi£-




Back to top