+ ShareSpark.net »  :::: Bollywood Zone » Regional Movies » Marathi Movies
|- Ventilator 2016 Untouched Cam x264 AAC [TMB]


Ventilator 2016 Untouched Cam x264 AAC [TMB]

0 Members and 1 Guest are viewing this topic.

December 05, 2016, 04:47:05 PM
  • *****************
  • Head Admin
  • Legend Member
  • *****
  • Topic Author
  • Thank You: 4723
  • Reputation: 2346
  • Activity:
    100%
  • Country: in
  • Posts: 16243
  • Topics: 9830
  • Join Date: Mar 2012
  • The Time Is Now......
Torrable - One stop for all your download & upload needs. It's smart, easy and free.




General
Complete name : Ventilator 2016 Untouched Cam x264 AAC [TMB].mp4
Format : MPEG-4
Format profile : Base Media
Codec ID : isom (isom/iso2/avc1/mp41)
File size : 330 MiB
Duration : 2 h 7 min
Overall bit rate mode : Variable
Overall bit rate : 361 kb/s

Video
Format : AVC
Format/Info : Advanced Video Codec
Format profile : [email protected]
Format settings, CABAC : Yes
Format settings, ReFrames : 3 frames
Codec ID : avc1
Codec ID/Info : Advanced Video Coding
Duration : 2 h 7 min
Bit rate : 232 kb/s
Width : 480 pixels
Height : 360 pixels
Display aspect ratio : 4:3
Frame rate mode : Constant
Frame rate : 25.000 FPS
Color space : YUV
Chroma subsampling : 4:2:0
Bit depth : 8 bits
Scan type : Progressive
Bits/(Pixel*Frame) : 0.054
Stream size : 212 MiB (64%)

Audio
Format : AAC
Format/Info : Advanced Audio Codec
Format profile : LC
Codec ID : 40
Duration : 2 h 7 min
Bit rate mode : Variable
Bit rate : 126 kb/s
Channel(s) : 2 channels
Channel positions : Front: L R
Sampling rate : 44.1 kHz
Frame rate : 43.066 FPS (1024 spf)
Compression mode : Lossy
Stream size : 115 MiB (35%)




































Share this topic on FacebookShare this topic on GoogleShare this topic on MySpaceShare this topic on TwitterShare this topic on Yahoo



Thanks given by:


Tags:
 

Related Topics

  Subject / Started by Replies Last post
0 Replies
599 Views
Last post May 03, 2016, 04:07:37 PM
by kkk
0 Replies
770 Views
Last post May 03, 2016, 04:20:52 PM
by тнє ωαll 81317
1 Replies
519 Views
Last post November 04, 2016, 09:14:15 AM
by dinmohammad
3 Replies
693 Views
Last post November 19, 2016, 12:19:45 PM
by -Ð@Rk.ÐèVi£-
0 Replies
342 Views
Last post December 05, 2016, 04:42:35 PM
by -Ð@Rk.ÐèVi£-




Back to top