+ ShareSpark.net »  :::: Bollywood Zone » Indian PC Videos
|- Bollywood.Webhd.1080p.Videos.Collection.15.[Hon3yHD]


Bollywood.Webhd.1080p.Videos.Collection.15.[Hon3yHD]

0 Members and 1 Guest are viewing this topic.

December 07, 2016, 12:17:10 AM
  • Team SSX
  • Hot Member
  • ***
  • Topic Author
  • Thank You: 388
  • Reputation: 102
  • Activity:
    24.2%
  • Country: in
  • Posts: 634
  • Topics: 372
  • Join Date: Oct 2013
  • TeamSSX Uploader
Torrable - One stop for all your download & upload needs. It's smart, easy and free.
Bollywood.Webhd.1080p.Videos.Collection.15.[Hon3yHD]





Video #1
     ID : 1
     Format : AVC
     Format/Info : Advanced Video Codec
     Format profile : [email protected]
     Format settings, CABAC : Yes
     Format settings, ReFrames : 3 frames
     Codec ID : avc1
     Codec ID/Info : Advanced Video Coding
     Duration : 5mn 25s
     Bit rate mode : Variable
     Bit rate : 7 994 Kbps
     Width : 1 920 pixels
     Height : 1 080 pixels
     Display aspect ratio : 16:9
     Frame rate mode : Constant
     Frame rate : 25.000 fps
     Standard : PAL
     Resolution : 24 bits
     Colorimetry : 4:2:0
     Scan type : Progressive
     Bits/(Pixel*Frame) : 0.154
     Stream size : 311 MiB (96%)
     Language : English
     Encoded date : UTC 2016-10-02 12:17:39
     Tagged date : UTC 2016-10-02 12:17:39
     colour_primaries : BT.709-5, BT.1361, IEC 61966-2-4, SMPTE RP177
     transfer_characteristics : BT.709-5, BT.1361
     matrix_coefficients : BT.709-5, BT.1361, IEC 61966-2-4 709, SMPTE RP177


Audio #2
     ID : 2
     Format : AAC
     Format/Info : Advanced Audio Codec
     Format version : Version 4
     Format profile : LC
     Format settings, SBR : No
     Codec ID : 40
     Duration : 5mn 25s
     Bit rate mode : Variable
     Bit rate : 317 Kbps
     Maximum bit rate : 386 Kbps
     Channel(s) : 2 channels
     Channel positions : L R
     Sampling rate : 48.0 KHz
     Resolution : 16 bits
     Stream size : 12.3 MiB (4%)
     Language : English
     Encoded date : UTC 2016-10-02 12:17:39
     Tagged date : UTC 2016-10-02 12:17:39





 :download:

BADAL

Code: [Select]
https://uptobox.com/users/sssagarsingha/1618260/BADAL

https://userscloud.com/go/1qn9nh62aad3/

AJAY

Code: [Select]
https://uptobox.com/users/sssagarsingha/1618293/AJAY

https://userscloud.com/go/ckjkrfec37l7/

FIZA

Code: [Select]
https://uptobox.com/users/sssagarsingha/1618311/FIZA

https://userscloud.com/go/r3xrwqqavky9/

GIVE REP PLEASE..........

Share this topic on FacebookShare this topic on GoogleShare this topic on MySpaceShare this topic on TwitterShare this topic on Yahoo

« Last Edit: December 07, 2016, 12:18:39 AM by sagarsingha »


Thanks given by:


December 07, 2016, 04:58:30 PM
Reply #1
  • Devoted Member
  • **
  • Thank You: 0
  • Reputation: 0
  • Activity:
    10.4%
  • Country: in
  • Posts: 109
  • Topics: 0
  • Join Date: Oct 2014
  • ShareSpark Member
Thanks For Uploading And Upload More & More Collection Of Hon3YHD Videos..... :thank: :10on10: :yahoo:

December 10, 2016, 12:32:58 PM
Reply #2
  • Semi Newbie
  • **
  • Thank You: 0
  • Reputation: 0
  • Activity:
    2.8%
  • Country: in
  • Posts: 29
  • Topics: 0
  • Join Date: Oct 2016
  • ShareSpark Member
Thanks for such a nice share.....keep uploading such beautiful romantic video songs

Tags:
 

Related Topics

  Subject / Started by Replies Last post
2 Replies
714 Views
Last post November 23, 2016, 10:42:20 AM
by gprem54
0 Replies
533 Views
Last post September 22, 2016, 01:29:49 PM
by sme_sarkar
0 Replies
496 Views
Last post September 24, 2016, 11:53:25 AM
by sme_sarkar
1 Replies
394 Views
Last post March 09, 2017, 06:21:45 PM
by Vagabond
1 Replies
293 Views
Last post March 11, 2017, 07:25:33 PM
by Vagabond




Back to top