+ ShareSpark.net »  :::: Hollywood Zone » Hollywood Movies (Original Rips) » Animation Movies
|- Toy Story 2 (1999) (1080p BluRay x265 HEVC 10bit AAC 5.1 Tank) [UTR]


Toy Story 2 (1999) (1080p BluRay x265 HEVC 10bit AAC 5.1 Tank) [UTR]

0 Members and 1 Guest are viewing this topic.

December 12, 2016, 10:33:55 AM
  • ♫♫♣ B૦ՐՈ T૦ H૯Նƿ ♣♫♫
  • Junior Moderator
  • Legend Member
  • ***
  • Topic Author
  • Thank You: 766
  • Reputation: 655
  • Activity:
    58.6%
  • Country: in
  • Posts: 2304
  • Topics: 897
  • Join Date: Jan 2013
  • ♠§§ Dσп'т Tαʟκ Jυƨт Acт §§ Dσп'т Sαч Jυƨт Sнσш §§♠
Torrable - One stop for all your download & upload needs. It's smart, easy and free.
:info:
Toy Story 2 (1999) (1080p BluRay x265 HEVC 10bit AAC 5.1 Tank) [UTR]





:info:
General
Format : Matroska
Format version : Version 4 / Version 2
File size : 1.60 GiB
Duration : 1 h 32 min
Overall bit rate : 2 459 kb/s
Encoded date : UTC 2015-08-25 10:01:51
Writing application : mkvmerge v8.3.0 (\'Over the Horizon\') 64bit
Writing library : libebml v1.3.1 + libmatroska v1.4.2

Video
ID : 3
Format : HEVC
Format/Info : High Efficiency Video Coding
Format profile : Main [email protected]@Main
Codec ID : V_MPEGH/ISO/HEVC
Duration : 1 h 32 min
Bit rate : 2 045 kb/s
Width : 1 920 pixels
Height : 1 080 pixels
Display aspect ratio : 16:9
Frame rate mode : Constant
Frame rate : 23.976 (24000/1001) FPS
Color space : YUV
Chroma subsampling : 4:2:0
Bit depth : 10 bits
Bits/(Pixel*Frame) : 0.041
Stream size : 1.33 GiB (83%)
Title : HEVC 1.7
Language : English
Default : Yes
Forced : No

Audio
ID : 4
Format : AAC
Format/Info : Advanced Audio Codec
Format profile : LC
Codec ID : A_AAC
Duration : 1 h 32 min
Bit rate : 384 kb/s
Channel(s) : 6 channels
Channel positions : Front: L C R, Side: L R, LFE
Sampling rate : 48.0 kHz
Frame rate : 46.875 FPS (1024 spf)
Compression mode : Lossy
Delay relative to video : 20 ms
Stream size : 256 MiB (16%)
Title : QAAC 384
Language : English
Default : Yes
Forced : No

Subtitles
ID : 1
Format : PGS
Muxing mode : zlib
Codec ID : S_HDMV/PGS
Codec ID/Info : Picture based subtitle format used on BDs/HD-DVDs
Duration : 1 h 32 min
Bit rate : 11.5 kb/s
Count of elements : 2390
Stream size : 7.57 MiB (0%)
Language : English
Default : Yes
Forced : No



:ss:



:download:





Share this topic on FacebookShare this topic on GoogleShare this topic on MySpaceShare this topic on TwitterShare this topic on Yahoo




Tags:
 

Related Topics





Back to top