+ ShareSpark.net »  :::: Hollywood Zone » Hollywood Movies (Original Rips) » Animation Movies
|- Storks (2016) (1080p Bluray x265 HEVC 10bit AAC 7.1 Tigole) [UTR]


Storks (2016) (1080p Bluray x265 HEVC 10bit AAC 7.1 Tigole) [UTR]

0 Members and 1 Guest are viewing this topic.

December 12, 2016, 10:43:27 AM
  • ♫♫♣ B૦ՐՈ T૦ H૯Նƿ ♣♫♫
  • Junior Moderator
  • Legend Member
  • ***
  • Topic Author
  • Thank You: 775
  • Reputation: 657
  • Activity:
    5.6%
  • Country: in
  • Posts: 2307
  • Topics: 897
  • Join Date: Jan 2013
  • ♠§§ Dσп'т Tαʟκ Jυƨт Acт §§ Dσп'т Sαч Jυƨт Sнσш §§♠
Torrable - One stop for all your download & upload needs. It's smart, easy and free.
:info:
Storks (2016) (1080p Bluray x265 HEVC 10bit AAC 7.1 Tigole) [UTR]





:info:
General
Format : Matroska
Format version : Version 4 / Version 2
File size : 1.83 GiB
Duration : 1 h 26 min
Overall bit rate : 3 010 kb/s
Movie name : Storks
Encoded date : UTC 2016-12-08 12:05:47
Writing application : mkvmerge v9.4.0 (\'Knurl\') 64bit
Writing library : libebml v1.3.4 + libmatroska v1.4.5

Video
ID : 1
Format : HEVC
Format/Info : High Efficiency Video Coding
Format profile : Main [email protected]@Main
Codec ID : V_MPEGH/ISO/HEVC
Duration : 1 h 26 min
Bit rate : 2 494 kb/s
Width : 1 920 pixels
Height : 800 pixels
Display aspect ratio : 2.40:1
Frame rate mode : Constant
Frame rate : 23.976 (24000/1001) FPS
Color space : YUV
Chroma subsampling : 4:2:0
Bit depth : 10 bits
Bits/(Pixel*Frame) : 0.068
Stream size : 1.52 GiB (83%)
Default : Yes
Forced : No

Audio #1
ID : 2
Format : AAC
Format/Info : Advanced Audio Codec
Format profile : LC
Codec ID : A_AAC
Duration : 1 h 26 min
Bit rate : 419 kb/s
Channel(s) : 8 channels
Channel positions : Front: L C R, Side: 4, LFE
Sampling rate : 48.0 kHz
Frame rate : 46.875 FPS (1024 spf)
Compression mode : Lossy
Delay relative to video : 20 ms
Stream size : 261 MiB (14%)
Language : English
Default : Yes
Forced : No

Audio #2
ID : 3
Format : AAC
Format/Info : Advanced Audio Codec
Format profile : HE-AAC / LC
Codec ID : A_AAC
Duration : 1 h 26 min
Bit rate : 66.2 kb/s
Channel(s) : 2 channels
Channel positions : Front: L R
Sampling rate : 48.0 kHz / 24.0 kHz
Frame rate : 23.438 FPS (1024 spf)
Compression mode : Lossy
Delay relative to video : 40 ms
Stream size : 40.9 MiB (2%)
Title : Commentary
Language : English
Default : No
Forced : No

Text #1
ID : 4
Format : VobSub
Muxing mode : zlib
Codec ID : S_VOBSUB
Codec ID/Info : Picture based subtitle format used on DVDs
Duration : 1 h 26 min
Bit rate : 8 800 b/s
Count of elements : 1722
Stream size : 5.45 MiB (0%)
Language : English
Default : No
Forced : No



:ss:



:download:





Share this topic on FacebookShare this topic on GoogleShare this topic on MySpaceShare this topic on TwitterShare this topic on Yahoo




Tags:
 

Related Topics





Back to top