+ ShareSpark.net »  :::: Hollywood Zone » Hollywood Movies (Original Rips) » 3D Movies
|- Storks (2016) 3D-HSBS 1080p BluRay x264 - SPRiNTER


Storks (2016) 3D-HSBS 1080p BluRay x264 - SPRiNTER

0 Members and 1 Guest are viewing this topic.

December 13, 2016, 08:42:56 AM
  • ♫♫♣ B૦ՐՈ T૦ H૯Նƿ ♣♫♫
  • Elite Moderator
  • Legend Member
  • ****
  • Topic Author
  • Thank You: 1079
  • Reputation: 724
  • Activity:
    79.6%
  • Country: dk
  • Posts: 2710
  • Topics: 1192
  • Join Date: Jan 2013
  • ♠§§ Dσп'т Tαʟκ Jυƨт Acт §§ Dσп'т Sαч Jυƨт Sнσш §§♠
:title:
Storks (2016) 3D-HSBS 1080p BluRay x264 - SPRiNTER




:info:
Complete name : Storks.2016.3D.1080p.BluRay.x264-SPRiNTER[PRiME].mkv
Format : Matroska
Format version : Version 4 / Version 2
File size : 4.37 GiB
Duration : 1 h 26 min
Overall bit rate : 7 198 kb/s
Encoded date : UTC 2016-12-12 04:25:33
Writing application : mkvmerge v8.3.0 (\'Over the Horizon\') 64bit
Writing library : libebml v1.3.1 + libmatroska v1.4.2

Video
ID : 1
Format : AVC
Format/Info : Advanced Video Codec
Format profile : [email protected]
Format settings, CABAC : Yes
Format settings, ReFrames : 5 frames
Codec ID : V_MPEG4/ISO/AVC
Duration : 1 h 26 min
Bit rate : 5 688 kb/s
Width : 1 920 pixels
Height : 808 pixels
Display aspect ratio : 2.40:1
Frame rate mode : Constant
Frame rate : 23.976 FPS
Color space : YUV
Chroma subsampling : 4:2:0
Bit depth : 8 bits
Scan type : Progressive
Bits/(Pixel*Frame) : 0.153
Stream size : 3.45 GiB (79%)
Writing library : x264 core 148 r2705 3f5ed56
Default : Yes
Forced : No

Audio
ID : 2
Format : DTS
Format/Info : Digital Theater Systems
Mode : 16
Format settings, Endianness : Big
Codec ID : A_DTS
Duration : 1 h 26 min
Bit rate mode : Constant
Bit rate : 1 509 kb/s
Channel(s) : 6 channels
Channel positions : Front: L C R, Side: L R, LFE
Sampling rate : 48.0 kHz
Frame rate : 93.750 FPS (512 spf)
Bit depth : 24 bits
Compression mode : Lossy
Stream size : 939 MiB (21%)
Language : English
Default : Yes
Forced : No

Menu
00:00:00.000 : en:00:00:00.000
00:10:26.501 : en:00:10:26.501
00:20:35.734 : en:00:20:35.734
00:30:24.406 : en:00:30:24.406
00:39:30.034 : en:00:39:30.034
00:50:24.480 : en:00:50:24.480
00:59:24.436 : en:00:59:24.436
01:07:06.022 : en:01:07:06.022
01:14:28.297 : en:01:14:28.297
01:20:53.599 : en:01:20:53.599



:ss:








:download:





Share this topic on FacebookShare this topic on GoogleShare this topic on MySpaceShare this topic on TwitterShare this topic on Yahoo




If U like any post, then say thanks 2 d uploader by posting in his topic, adding thanks & reputes 2 him.:)

Tags:
 

Related Topics





Back to top