+ ShareSpark.net »  :::: Bollywood Zone » Regional Movies » Bengali Movies
|- Jijibisha (2016) HEVC TinyRip x265 AAC Esubs 400MB [DDR]


Jijibisha (2016) HEVC TinyRip x265 AAC Esubs 400MB [DDR]

0 Members and 1 Guest are viewing this topic.

December 15, 2016, 07:56:26 AM
  • ♫♫♣ B૦ՐՈ T૦ H૯Նƿ ♣♫♫
  • Junior Moderator
  • Legend Member
  • ***
  • Topic Author
  • Thank You: 775
  • Reputation: 657
  • Activity:
    6.6%
  • Country: in
  • Posts: 2307
  • Topics: 897
  • Join Date: Jan 2013
  • ♠§§ Dσп'т Tαʟκ Jυƨт Acт §§ Dσп'т Sαч Jυƨт Sнσш §§♠
Torrable - One stop for all your download & upload needs. It's smart, easy and free.


Jijibisha.(2016)-HEVC-Tiny.Rip-x265.AAC.Esubs-400MB-[DDR]




:info:
General
Format : Matroska
Format version : Version 4 / Version 2
File size : 399 MiB
Duration : 1 h 33 min
Overall bit rate : 600 kb/s
Writing application : mkvmerge v9.6.0 ('Slave To Your Mind') 64bit
Writing library : libebml v1.3.4 + libmatroska v1.4.5

Video
Format/Info : High Efficiency Video Coding
Format profile : Main [email protected]@Main
Codec ID : V_MPEGH/ISO/HEVC
Duration : 1 h 33 min
Bit rate : 471 kb/s
Width : 720 pixels
Height : 304 pixels
Display aspect ratio : 2.35:1
Frame rate mode : Constant
Frame rate : 23.976 FPS
Color space : YUV
Chroma subsampling : 4:2:0
Bit depth : 10 bits
Bits/(Pixel*Frame) : 0.090
Stream size : 314 MiB (78%)
Writing library : x265 2.1+69-c97c64ab8b8e:[Windows][GCC 6.2.0][64 bit] 10bit

Audio
Format : AAC
Format/Info : Advanced Audio Codec
Format profile : HE-AAC / LC
Codec ID : A_AAC
Duration : 1 h 33 min
Bit rate : 127 kb/s
Channel(s) : 2 channels
Channel positions : Front: L R
Sampling rate : 48.0 kHz / 24.0 kHz
Frame rate : 23.438 FPS (1024 spf)
Compression mode : Lossy
Delay relative to video : 206 ms
Stream size : 84.5 MiB (21%)
Language : Bengali

Chapters & Subtitles
Chapters: 16
Subtitles: English (SRT file provided separately)

Starring
Soumitra Chatterjee, Sreelekha Mitra, Joy Sengupta, Sayani Dutta, Monalisa Datta & Ors.

Technical Team
Director: Sumit Das; Producer: Kaushik Goon & Kingshuk Goon; Music: Debojyoti Bose; DOP: Santanu Dey; Editor: Bodhaditya Banerjee: Sound: Tito; Art: Satadal Mitra

Ripped By: Udbuddho



:ss:




:download:
Eng. SRT File ->

Full Movie ->





Share this topic on FacebookShare this topic on GoogleShare this topic on MySpaceShare this topic on TwitterShare this topic on Yahoo




Tags:
 

Related Topics





Back to top