+ ShareSpark.net »  :::: Dubbed Zone (Dubbed English in Hindi) » English Movies Dubbed in Hindi » Animation Movies
|- Moana 2016 HDTS x264 [Dual Audio] [Hindi (Cleaned) 2.0 - English] - Team EDM


Moana 2016 HDTS x264 [Dual Audio] [Hindi (Cleaned) 2.0 - English] - Team EDM

0 Members and 1 Guest are viewing this topic.

December 16, 2016, 06:19:48 PM
  • Legend
  • Legend Member
  • ***
  • Topic Author
  • Thank You: 1586
  • Reputation: 348
  • Activity:
    19.6%
  • Country: in
  • Posts: 3227
  • Topics: 1967
  • Join Date: Dec 2013
  • ShareSpark Member

Moana 2016 HDTS x264 [Dual Audio] [Hindi (Cleaned) 2.0 - English] - Team EDM


Poster























Complete name               : Moana 2016 HDTS  x264 [Dual Audio] [Hindi (Cleaned) 2.0 - English] Exclusive By Team EDM.mkv
Format                      : Matroska
Format version              : Version 4 / Version 2
File size                   : 1.86 GiB
Duration                    : 1 h 33 min
Overall bit rate            : 2 836 kb/s
Movie name                  : Moana 2016 HDTS  x264 [Dual Audio] [Hindi (Cleaned) 2.0 - English] Exclusive By Team EDM
Encoded date                : UTC 2016-12-13 09:13:32
Writing application         : mkvmerge v9.5.0 ('Quiet Fire') 64bit
Writing library             : libebml v1.3.4 + libmatroska v1.4.5

Video
ID                          : 1
Format                      : MPEG-4 Visual
Format profile              : [email protected]
Format settings, BVOP       : No
Format settings, QPel       : No
Format settings, GMC        : No warppoints
Format settings, Matrix     : Default (H.263)
Codec ID                    : V_MS/VFW/FOURCC / XVID
Codec ID/Hint               : XviD
Duration                    : 1 h 33 min
Bit rate                    : 2 449 kb/s
Width                       : 720 pixels
Height                      : 328 pixels
Display aspect ratio        : 16:9
Frame rate mode             : Constant
Frame rate                  : 30.000 FPS
Color space                 : YUV
Chroma subsampling          : 4:2:0
Bit depth                   : 8 bits
Scan type                   : Progressive
Compression mode            : Lossy
Bits/(Pixel*Frame)          : 0.346
Stream size                 : 1.60 GiB (86%)
Title                       : Moana 2016 HDTS  x264 [Dual Audio] [Hindi (Cleaned) 2.0 - English] Exclusive By Team EDM
Writing library             : XviD 1.2.1 (UTC 2008-12-04)
Language                    : English
Default                     : Yes
Forced                      : No

Audio #1
ID                          : 2
Format                      : AC-3
Format/Info                 : Audio Coding 3
Mode extension              : CM (complete main)
Format settings, Endianness : Big
Codec ID                    : A_AC3
Duration                    : 1 h 33 min
Bit rate mode               : Constant
Bit rate                    : 192 kb/s
Channel(s)                  : 2 channels
Channel positions           : Front: L R
Sampling rate               : 44.1 kHz
Frame rate                  : 28.711 FPS (1536 spf)
Compression mode            : Lossy
Delay relative to video     : 9 ms
Stream size                 : 129 MiB (7%)
Title                       : Team EDM
Language                    : English
Default                     : No
Forced                      : No

Audio #2
ID                          : 3
Format                      : AC-3
Format/Info                 : Audio Coding 3
Mode extension              : CM (complete main)
Format settings, Endianness : Big
Codec ID                    : A_AC3
Duration                    : 1 h 33 min
Bit rate mode               : Constant
Bit rate                    : 192 kb/s
Channel(s)                  : 2 channels
Channel positions           : Front: L R
Sampling rate               : 48.0 kHz
Frame rate                  : 31.250 FPS (1536 spf)
Compression mode            : Lossy
Stream size                 : 129 MiB (7%)
Title                       : Team EDM
Language                    : Hindi
Default                     : Yes
Forced                      : Yes

Text
ID                          : 4
Format                      : UTF-8
Codec ID                    : S_TEXT/UTF8
Codec ID/Info               : UTF-8 Plain Text
Duration                    : 50 min
Bit rate                    : 18 b/s
Count of elements           : 100
Stream size                 : 6.96 KiB (0%)
Title                       : Team EDM
Language                    : English
Default                     : Yes
Forced                      : No



All Credit Goes To Orignal Uploader







Sample



      




      
      


Movie



      




      
      

Share this topic on FacebookShare this topic on GoogleShare this topic on MySpaceShare this topic on TwitterShare this topic on Yahoo




Thanks given by:


December 16, 2016, 06:38:43 PM
Reply #1
  • Conqueror
  • Legend Member
  • *****
  • Thank You: 1776
  • Reputation: 242
  • Activity:
    100%
  • Country: in
  • Posts: 3310
  • Topics: 2528
  • Join Date: Sep 2016
  • (: EnJOy D LiFe :)

Tags:
 

Related Topics





Back to top