+ ShareSpark.net »  :::: Bollywood Zone » Bollywood Movies (Original Rips) » Bollywood Movies (1945-2000)
|- Agneepath (1990) 720p HD-Rip X264 AC-3 E-Sub [XMR]


Agneepath (1990) 720p HD-Rip X264 AC-3 E-Sub [XMR]

0 Members and 1 Guest are viewing this topic.

December 21, 2016, 11:32:22 AM
  • Legend
  • Legend Member
  • ***
  • Topic Author
  • Thank You: 1022
  • Reputation: 328
  • Activity:
    0.6%
  • Country: in
  • Posts: 2638
  • Topics: 2542
  • Join Date: Sep 2013
  • The Pirate
  • Expertises:
  • Bollywood Movies
  • Hollywood Movies
Torrable - One stop for all your download & upload needs. It's smart, easy and free.



Format                      : Matroska
Format version              : Version 2
File size                   : 1.39 GiB
Duration                    : 2 h 54 min
Overall bit rate            : 1 143 kb/s
Encoded date                : UTC 2016-12-20 14:52:37
Writing application         : mkvmerge v8.5.2 ('Crosses') 32bit
Writing library             : libebml v1.3.3 + libmatroska v1.4.4

Video
ID                          : 1
Format                      : AVC
Format/Info                 : Advanced Video Codec
Format profile              : [email protected]
Format settings, CABAC      : Yes
Format settings, ReFrames   : 4 frames
Codec ID                    : V_MPEG4/ISO/AVC
Duration                    : 2 h 54 min
Bit rate                    : 1 018 kb/s
Width                       : 1 280 pixels
Height                      : 544 pixels
Display aspect ratio        : 2.35:1
Frame rate mode             : Constant
Frame rate                  : 24.000 FPS
Color space                 : YUV
Chroma subsampling          : 4:2:0
Bit depth                   : 8 bits
Scan type                   : Progressive
Bits/(Pixel*Frame)          : 0.061

Default                     : Yes
Forced                      : No

Audio
ID                          : 2
Format                      : AC-3
Format/Info                 : Audio Coding 3
Mode extension              : CM (complete main)
Format settings, Endianness : Big
Codec ID                    : A_AC3
Duration                    : 2 h 54 min
Bit rate mode               : Constant
Bit rate                    : 128 kb/s
Channel(s)                  : 2 channels
Channel positions           : Front: L R
Sampling rate               : 44.1 kHz
Frame rate                  : 28.711 FPS (1536 spf)
Bit depth                   : 16 bits
Compression mode            : Lossy
Stream size                 : 160 MiB (11%)
Language                    : Hindi
Default                     : Yes
Forced                      : No

Text
ID                          : 3
Format                      : UTF-8
Codec ID                    : S_TEXT/UTF8
Codec ID/Info               : UTF-8 Plain Text
Duration                    : 2 h 51 min
Bit rate                    : 43 b/s
Count of elements           : 1648
Stream size                 : 54.9 KiB (0%)
Language                    : English
Default                     : Yes
Forced                      : No


Share this topic on FacebookShare this topic on GoogleShare this topic on MySpaceShare this topic on TwitterShare this topic on Yahoo




Jatt nahio mada tera soniye ,Bus shonk hi ne atthre Jo palle ne

Thanks given by:


Tags:
 

Related Topics

  Subject / Started by Replies Last post
1 Replies
870 Views
Last post December 21, 2012, 04:54:08 PM
by Hari ♥♫
0 Replies
494 Views
Last post January 30, 2013, 10:02:20 AM
by sundarmobiles
4 Replies
934 Views
Last post July 11, 2013, 07:32:13 PM
by Blood Warrior
0 Replies
659 Views
Last post December 02, 2013, 10:33:23 AM
by м ωαqαя вuтт
0 Replies
357 Views
Last post July 31, 2015, 01:13:24 PM
by -Ð@Rk.ÐèVi£-




Back to top