+ ShareSpark.net »  :::: Dubbed Zone (Dubbed English in Hindi) » English Movies Dubbed in Hindi » High Resolution Movies
|- Angels and Demons 2009 1080p EXTENDED BluRay x264 [Hindi-Tamil-Telugu-English][Org DD5.1]Hon3y


Angels and Demons 2009 1080p EXTENDED BluRay x264 [Hindi-Tamil-Telugu-English][Org DD5.1]Hon3y

0 Members and 1 Guest are viewing this topic.

December 22, 2016, 11:56:26 AM
  • Team SSX
  • Legend Member
  • ***
  • Topic Author
  • Thank You: 1285
  • Reputation: 172
  • Activity:
    100%
  • Country: in
  • Posts: 2441
  • Topics: 1771
  • Join Date: Sep 2016
  • (: EnJOy D LiFe :)
Torrable - One stop for all your download & upload needs. It's smart, easy and free.
:title:
Angels and Demons 2009 1080p EXTENDED BluRay x264 [Hindi-Tamil-Telugu-English][Org DD5.1]Hon3y



W3apoN-X-----R3al_Star

 :info:

Format                      : Matroska
Format version              : Version 4 / Version 2
File size                   : 5.53 GiB
Duration                    : 2 h 26 min
Overall bit rate            : 5 411 kb/s
Movie name                  : Hon3yHD

Video
ID                          : 1
Format                      : AVC
Format/Info                 : Advanced Video Codec
Format profile              : [email protected]
Format settings, CABAC      : Yes
Format settings, ReFrames   : 5 frames
Codec ID                    : V_MPEG4/ISO/AVC
Duration                    : 2 h 26 min
Bit rate                    : 3 009 kb/s
Width                       : 1 920 pixels
Height                      : 800 pixels
Display aspect ratio        : 2.40:1
Frame rate mode             : Constant
Frame rate                  : 23.976 (24000/1001) FPS
Color space                 : YUV
Chroma subsampling          : 4:2:0
Bit depth                   : 8 bits
Scan type                   : Progressive
Bits/(Pixel*Frame)          : 0.082
Stream size                 : 3.07 GiB (56%)
Title                       : W3apoN-X...Hon3yHD

Audio #1
ID                          : 2
Format                      : AC-3
Format/Info                 : Audio Coding 3
Mode extension              : CM (complete main)
Format settings, Endianness : Big
Codec ID                    : A_AC3
Duration                    : 2 h 26 min
Bit rate mode               : Constant
Bit rate                    : 640 kb/s
Channel(s)                  : 6 channels
Channel positions           : Front: L C R, Side: L R, LFE
Sampling rate               : 48.0 kHz
Frame rate                  : 31.250 FPS (1536 spf)
Compression mode            : Lossy
Stream size                 : 670 MiB (12%)
Title                       : Hindi DD5.1 640Kbps---W3apoN-X...Hon3yHD
Language                    : Hindi
Default                     : Yes
Forced                      : Yes

Audio #2
ID                          : 3
Format                      : AC-3
Format/Info                 : Audio Coding 3
Mode extension              : CM (complete main)
Format settings, Endianness : Big
Codec ID                    : A_AC3
Duration                    : 2 h 26 min
Bit rate mode               : Constant
Bit rate                    : 640 kb/s
Channel(s)                  : 6 channels
Channel positions           : Front: L C R, Side: L R, LFE
Sampling rate               : 48.0 kHz
Frame rate                  : 31.250 FPS (1536 spf)
Compression mode            : Lossy
Stream size                 : 670 MiB (12%)
Title                       : Tamil DD5.1 640Kbps---W3apoN-X...Hon3yHD
Language                    : Tamil
Default                     : No
Forced                      : No

Audio #3
ID                          : 4
Format                      : AC-3
Format/Info                 : Audio Coding 3
Mode extension              : CM (complete main)
Format settings, Endianness : Big
Codec ID                    : A_AC3
Duration                    : 2 h 26 min
Bit rate mode               : Constant
Bit rate                    : 640 kb/s
Channel(s)                  : 6 channels
Channel positions           : Front: L C R, Side: L R, LFE
Sampling rate               : 48.0 kHz
Frame rate                  : 31.250 FPS (1536 spf)
Compression mode            : Lossy
Stream size                 : 670 MiB (12%)
Title                       : Telugu DD5.1 640Kbps---W3apoN-X...Hon3yHD
Language                    : Telugu
Default                     : No
Forced                      : No

Audio #4
ID                          : 5
Format                      : AC-3
Format/Info                 : Audio Coding 3
Mode extension              : CM (complete main)
Format settings, Endianness : Big
Codec ID                    : A_AC3
Duration                    : 2 h 26 min
Bit rate mode               : Constant
Bit rate                    : 448 kb/s
Channel(s)                  : 6 channels
Channel positions           : Front: L C R, Side: L R, LFE
Sampling rate               : 48.0 kHz
Frame rate                  : 31.250 FPS (1536 spf)
Compression mode            : Lossy
Stream size                 : 469 MiB (8%)
Title                       : English DD5.1 448Kbps---W3apoN-X...Hon3yHD
Language                    : English
Default                     : No
Forced                      : No

Text #1
ID                          : 6
Format                      : PGS
Muxing mode                 : zlib
Codec ID                    : S_HDMV/PGS
Codec ID/Info               : Picture based subtitle format used on BDs/HD-DVDs
Duration                    : 2 h 15 min
Bit rate                    : 12.8 kb/s
Count of elements           : 2762
Stream size                 : 12.4 MiB (0%)
Title                       : English---W3apoN-X...Hon3yHD
Language                    : English
Default                     : No
Forced                      : No

Text #2
ID                          : 7
Format                      : PGS
Muxing mode                 : zlib
Codec ID                    : S_HDMV/PGS
Codec ID/Info               : Picture based subtitle format used on BDs/HD-DVDs
Duration                    : 2 h 20 min
Bit rate                    : 8 344 b/s
Count of elements           : 3043
Stream size                 : 8.38 MiB (0%)
Title                       : English---W3apoN-X...Hon3yHD
Language                    : English
Default                     : No
Forced                      : No

Text #3
ID                          : 8
Format                      : PGS
Muxing mode                 : zlib
Codec ID                    : S_HDMV/PGS
Codec ID/Info               : Picture based subtitle format used on BDs/HD-DVDs
Duration                    : 2 h 16 min
Bit rate                    : 12.8 kb/s
Count of elements           : 2837
Stream size                 : 12.5 MiB (0%)
Title                       : Hindi---W3apoN-X...Hon3yHD
Language                    : Hindi
Default                     : No
Forced                      : No

Text #4
ID                          : 9
Format                      : PGS
Muxing mode                 : zlib
Codec ID                    : S_HDMV/PGS
Codec ID/Info               : Picture based subtitle format used on BDs/HD-DVDs
Duration                    : 2 h 13 min
Bit rate                    : 568 b/s
Count of elements           : 144
Stream size                 : 554 KiB (0%)
Title                       : Tamil---W3apoN-X...Hon3yHD
Language                    : Tamil
Default                     : No
Forced                      : No

Text #5
ID                          : 10
Format                      : PGS
Muxing mode                 : zlib
Codec ID                    : S_HDMV/PGS
Codec ID/Info               : Picture based subtitle format used on BDs/HD-DVDs
Duration                    : 2 h 12 min
Bit rate                    : 799 b/s
Count of elements           : 134
Stream size                 : 776 KiB (0%)
Title                       : Telugu---W3apoN-X...Hon3yHD
Language                    : Telugu
Default                     : No
Forced                      : No

Menu
00:00:00.000                : en:00:00:00.000
00:09:30.862                : en:00:09:30.862
00:19:08.355                : en:00:19:08.355
00:27:16.260                : en:00:27:16.260
00:34:22.811                : en:00:34:22.811
00:46:14.605                : en:00:46:14.605
00:55:16.855                : en:00:55:16.855
01:04:36.206                : en:01:04:36.206
01:14:51.904                : en:01:14:51.904
01:22:50.966                : en:01:22:50.966
01:32:53.693                : en:01:32:53.693
01:44:11.662                : en:01:44:11.662
01:55:16.826                : en:01:55:16.826
02:05:37.738                : en:02:05:37.738
02:10:38.580                : en:02:10:38.580
02:15:06.431                : en:02:15:06.431


SCREENSHOTS NOT AVAILABLE

 :download:




GOOGLE DRIVE LINK
WATCH :

DONLOAD :



Share this topic on FacebookShare this topic on GoogleShare this topic on MySpaceShare this topic on TwitterShare this topic on Yahoo

« Last Edit: December 22, 2016, 12:05:27 PM by PSYCHO »


Thanks given by:


December 24, 2016, 11:46:21 PM
Reply #1
  • Hero Member
  • ***
  • Thank You: 64
  • Reputation: 5
  • Activity:
    48.2%
  • Country: in
  • Posts: 306
  • Topics: 142
  • Join Date: Dec 2016
  • ShareSpark Member

December 27, 2016, 11:13:52 PM
Reply #2
  • Semi Newbie
  • **
  • Thank You: 3
  • Reputation: -1
  • Activity:
    0.2%
  • Posts: 38
  • Topics: 3
  • Join Date: Sep 2013
  • ShareSpark Member
Thanks..also upload Lights out 1080p by Hon3y (4gb ),Ice Age 5 1080p Hon3y(4 Gb or 6.5 gb) Thanks....

Tags:
 

Related Topics

  Subject / Started by Replies Last post
0 Replies
388 Views
Last post January 16, 2014, 11:17:09 AM
by Desi Releasers
2 Replies
653 Views
Last post April 02, 2014, 09:12:14 PM
by тυявσRG
4 Replies
868 Views
Last post October 17, 2014, 01:34:07 PM
by alijoyia110
0 Replies
796 Views
Last post October 20, 2015, 08:25:22 PM
by s¡lєит_αssαss¡и
0 Replies
451 Views
Last post November 13, 2016, 10:47:52 AM
by ~ HD-MAN ~




Back to top