+ ShareSpark.net »  :::: Bollywood Zone » Bollywood Movies (Original Rips) » Bollywood Movies (1945-2000)
|- Gumrah (1993) 720p HD-Rip X264 AC-3 E-Sub 1.39GB [XMR]


Gumrah (1993) 720p HD-Rip X264 AC-3 E-Sub 1.39GB [XMR]

0 Members and 1 Guest are viewing this topic.

December 23, 2016, 02:13:53 PM
  • Team SSX
  • Legend Member
  • ***
  • Topic Author
  • Thank You: 1196
  • Reputation: 160
  • Activity:
    100%
  • Country: in
  • Posts: 2150
  • Topics: 1540
  • Join Date: Sep 2016
  • (: EnJOy D LiFe :)
Torrable - One stop for all your download & upload needs. It's smart, easy and free.
:title:
Gumrah (1993) 720p HD-Rip X264 AC-3 E-Sub [XMR]



 :info:

Format                      : Matroska
Format version              : Version 2
File size                   : 1.39 GiB
Duration                    : 2 h 29 min
Overall bit rate            : 1 332 kb/s
Encoded date                : UTC 2016-12-21 04:52:45
Writing application         : mkvmerge v8.5.2 ('Crosses') 32bit
Writing library             : libebml v1.3.3 + libmatroska v1.4.4

Video
ID                          : 1
Format                      : AVC
Format/Info                 : Advanced Video Codec
Format profile              : [email protected]
Format settings, CABAC      : Yes
Format settings, ReFrames   : 4 frames
Codec ID                    : V_MPEG4/ISO/AVC
Duration                    : 2 h 29 min
Bit rate                    : 1 208 kb/s
Width                       : 1 280 pixels
Height                      : 544 pixels
Display aspect ratio        : 2.35:1
Frame rate mode             : Constant
Frame rate                  : 24.000 FPS
Color space                 : YUV
Chroma subsampling          : 4:2:0
Bit depth                   : 8 bits
Scan type                   : Progressive
Bits/(Pixel*Frame)          : 0.072
Stream size                 : 1.25 GiB (90%)
Title                       : [email protected]
Default                     : Yes
Forced                      : No

Audio
ID                          : 2
Format                      : AC-3
Format/Info                 : Audio Coding 3
Mode extension              : CM (complete main)
Codec ID                    : A_AC3
Duration                    : 2 h 29 min
Bit rate mode               : Constant
Bit rate                    : 128 kb/s
Channel(s)                  : 2 channels
Channel positions           : Front: L R
Sampling rate               : 44.1 kHz
Frame rate                  : 28.711 FPS (1536 spf)
Bit depth                   : 16 bits
Compression mode            : Lossy
Stream size                 : 137 MiB (10%)
Title                       : [email protected]
Language                    : Hindi
Default                     : Yes
Forced                      : No

Text
ID                          : 3
Format                      : UTF-8
Codec ID                    : S_TEXT/UTF8
Codec ID/Info               : UTF-8 Plain Text
Duration                    : 2 h 25 min
Bit rate                    : 39 b/s
Count of elements           : 1529
Stream size                 : 42.1 KiB (0%)
Title                       : [email protected]
Language                    : English
Default                     : Yes
Forced                      : No


 :ss:





















CLICK IMAGE TO ENLARGE

 :download:








Share this topic on FacebookShare this topic on GoogleShare this topic on MySpaceShare this topic on TwitterShare this topic on Yahoo

« Last Edit: December 23, 2016, 02:29:42 PM by PSYCHO »


Thanks given by:


December 23, 2016, 03:11:04 PM
Reply #1
  • Elite Member
  • ***
  • Thank You: 477
  • Reputation: 167
  • Activity:
    8.6%
  • Country: bd
  • Posts: 411
  • Topics: 105
  • Join Date: Feb 2013
  • ShareSpark Member

December 23, 2016, 06:48:18 PM
Reply #2
  • Team SSX
  • Devoted Member
  • ***
  • Thank You: 59
  • Reputation: 11
  • Activity:
    3.4%
  • Country: in
  • Posts: 120
  • Topics: 108
  • Join Date: Oct 2016
  • Born To Live
Born To Live. So always Positive

Tags:
 

Related Topics

  Subject / Started by Replies Last post
2 Replies
419 Views
Last post June 25, 2014, 05:30:16 PM
by -Ð@Rk.ÐèVi£-
2 Replies
720 Views
Last post October 19, 2016, 09:07:54 PM
by nishit8055
0 Replies
260 Views
Last post January 04, 2017, 11:44:44 AM
by PSYCHO
1 Replies
524 Views
Last post January 11, 2017, 10:22:43 PM
by proyer
0 Replies
110 Views
Last post February 08, 2017, 04:36:05 PM
by PSYCHO




Back to top