+ ShareSpark.net »  :::: Bollywood Zone » Regional Movies » Bengali Movies
|- Benche Thakar Gaan (2016) BENGALI WebHD Rip x264 AAC Subs 1CD 698MB [DDR]


Benche Thakar Gaan (2016) BENGALI WebHD Rip x264 AAC Subs 1CD 698MB [DDR]

0 Members and 1 Guest are viewing this topic.

December 24, 2016, 11:18:43 AM
  • Special Member
  • ****
  • Topic Author
  • Thank You: 141
  • Reputation: 58
  • Activity:
    100%
  • Country: in
  • Posts: 743
  • Topics: 366
  • Join Date: Sep 2016
  • ShareSpark Member
Torrable - One stop for all your download & upload needs. It's smart, easy and free.
:title:
Benche Thakar Gaan (2016) WebHD Rip x264 AAC Subs 1CD [DDR]



 :info:

General
Format : Matroska
Format version : Version 4 / Version 2
File size : 698 MiB
Duration : 2 h 03 min
Overall bit rate : 794 kb/s
bit rate mode : variable
Writing application : mkvmerge v9.6.0 ('Slave To Your Mind') 64bit
Writing library : libebml v1.3.4 + libmatroska v1.4.5

Video
Format/Info : High Efficiency Video Coding
Format profile : [email protected]@Main
Codec ID : V_MPEG4/ISO/AVC
Duration : 1 h 33 min
Bit rate : 664 kb/s
Maximum Bit Rate : 17.5 Mb/s
Width : 720 pixels
Height : 304 pixels
Display aspect ratio : 2.35:1
Frame rate mode : Constant
Frame rate : 23.976 FPS
Color space : YUV
Chroma subsampling : 4:2:0
Bit depth : 8 bits
Bits/(Pixel*Frame) : 0.127
Stream size : 584 MiB (78%)
Writing library : x264 core 148 r2744 b97ae06

Audio
Format : AAC
Format/Info : Advanced Audio Codec
Format profile : HE-AAC / LC
Codec ID : A_AAC
Duration : 2 h 03 min
Bit rate : 128 kb/s
Channel(s) : 2 channels
Channel positions : Front: L R
Sampling rate : 48.0 kHz / 24.0 kHz
Frame rate : 23.438 FPS (1024 spf)
Compression mode : Lossy
Delay relative to video : 31 ms
Stream size : 112 MiB (16%)
Language : Bengali

Chapters & Subtitles
Chapters: NIL
Subtitles: English (Hardcoded)


Ripped By: Udbuddho

 :ss:








 :download:








Share this topic on FacebookShare this topic on GoogleShare this topic on MySpaceShare this topic on TwitterShare this topic on Yahoo

« Last Edit: December 24, 2016, 01:09:47 PM by PSYCHO »


Thanks given by:


December 24, 2016, 01:18:04 PM
Reply #1
  • Team SSX
  • Devoted Member
  • ***
  • Thank You: 39
  • Reputation: 11
  • Activity:
    24.8%
  • Country: in
  • Posts: 120
  • Topics: 108
  • Join Date: Oct 2016
  • Born To Live

Tags:
 

Related Topics

  Subject / Started by Replies Last post
0 Replies
353 Views
Last post July 18, 2014, 11:05:55 AM
by -Ð@Rk.ÐèVi£-
0 Replies
142 Views
Last post December 12, 2016, 08:14:44 PM
by iwnna_agha
1 Replies
121 Views
Last post December 24, 2016, 01:16:20 PM
by Abhisona
0 Replies
204 Views
Last post December 24, 2016, 01:01:39 PM
by тнє ωαll 81317
0 Replies
183 Views
Last post December 24, 2016, 09:57:31 PM
by Abhisona




Back to top