+ ShareSpark.net »  :::: Bollywood Zone » Regional Movies » Bengali Movies
|- Benche Thakar Gaan (2016) BENGALI 720p WebHD Rip x264 AAC Subs 2.5GB [DDR]


Benche Thakar Gaan (2016) BENGALI 720p WebHD Rip x264 AAC Subs 2.5GB [DDR]

0 Members and 1 Guest are viewing this topic.

December 24, 2016, 12:58:53 PM
  • Team SSX
  • Legend Member
  • ***
  • Topic Author
  • Thank You: 1185
  • Reputation: 159
  • Activity:
    100%
  • Country: in
  • Posts: 2134
  • Topics: 1525
  • Join Date: Sep 2016
  • (: EnJOy D LiFe :)
Torrable - One stop for all your download & upload needs. It's smart, easy and free.
:title:
Benche Thakar Gaan (2016) 720p WebHD Rip x264 AAC Subs 2.5GB [DDR]



 :info:

General
Format: Matroska
Format version: Version 4 / Version 2
File size: 2.50 GiB
Duration: 2 h 03 min
Overall bit rate mode: Variable
Overall bit rate: 2909 kb/s

Video
Format Profile: [email protected]
Codec ID: V_MPEG4/ISO/AVC
Duration: 2 h 03 min
Bit rate mode: Variable
Bit rate: 2779 kb/s
Maximum bit rate: 62.5 Mb/s
Width: 1 280 pixels
Height: 544 pixels
Display aspect ratio: 2.35:1
Frame rate mode: Constant
Frame rate: 23.976 FPS
Color space: YUV
Chroma subsampling: 4:2:0
Bit depth: 8 bits
Scan type: Progressive
Bits/(Pixel*Frame): 0.166
Stream size: 2.39 GiB (91%)
Writing library: x264 core 148 r2744 b97ae06
Color Primaries: BT.709

Audio
Language: Bengali
Format: AAC
Duration: 2 h 03 min
Bit rate: 128 kb/s
Channel(s): 2 channels
Channel positions: Front: Front: L R
Sampling rate: 48.0 kHz / 24 kHz
Frame rate: 23.438 FPS (1024 spf)
Compression mode: Lossy
Delay relative to video: 31 ms
Stream size: 415 MiB (6%)
Default: Yes
Forced : No

Chapters & Subtitles
Chapters: None
Subtitles: Hardcoded


Ripped By: Udbuddho

 :ss:

























CLICK IMAGE TO ENLARGE

 :download:









Share this topic on FacebookShare this topic on GoogleShare this topic on MySpaceShare this topic on TwitterShare this topic on Yahoo

« Last Edit: December 24, 2016, 01:05:14 PM by PSYCHO »


Thanks given by:


December 24, 2016, 01:16:20 PM
Reply #1
  • Team SSX
  • Devoted Member
  • ***
  • Thank You: 59
  • Reputation: 11
  • Activity:
    5%
  • Country: in
  • Posts: 120
  • Topics: 108
  • Join Date: Oct 2016
  • Born To Live

Tags:
 

Related Topics

  Subject / Started by Replies Last post
0 Replies
402 Views
Last post July 18, 2014, 11:05:55 AM
by -Ð@Rk.ÐèVi£-
0 Replies
188 Views
Last post December 12, 2016, 08:14:44 PM
by iwnna_agha
1 Replies
309 Views
Last post December 24, 2016, 01:18:04 PM
by Abhisona
0 Replies
400 Views
Last post December 24, 2016, 01:01:39 PM
by тнє ωαll 81317
0 Replies
347 Views
Last post December 24, 2016, 09:57:31 PM
by Abhisona




Back to top