+ ShareSpark.net »  :::: Bollywood Zone » Regional Movies » Bengali Movies
|- Benche Thakar Gaan (2016) HEVC - WebHD TinyRip - x265 AAC Subs - 550MB [DDR]


Benche Thakar Gaan (2016) HEVC - WebHD TinyRip - x265 AAC Subs - 550MB [DDR]

0 Members and 1 Guest are viewing this topic.

December 24, 2016, 01:01:39 PM
  • Global Moderator
  • Legend Member
  • *****
  • Topic Author
  • Thank You: 1441
  • Reputation: 317
  • Activity:
    32%
  • Country: in
  • Posts: 2949
  • Topics: 1883
  • Join Date: Dec 2013
  • ShareSpark Member
Torrable - One stop for all your download & upload needs. It's smart, easy and free.
   
Benche Thakar Gaan (2016) HEVC - WebHD TinyRip - x265 AAC Subs - 550MB [DDR]
   
   



   Presenting a DDR WebHD Tiny.Rip   

   Benche Thakar Gaan (Song of Life) -(2016)   

   (A film by Abhijit Guha & Sudeshna Roy)   

   Bangla - WebHD.Rip - 720x304 (2.35:1)- 548 MB- x.265.AAC - 2 Hrs:03 Min   

   HIGH EFFICIENCY VIDEO ENCODING (HEVC)   



Poster
























General
Format : Matroska
Format version : Version 4 / Version 2
File size : 548 MiB
Duration : 2 h 03 min
Overall bit rate : 623 kb/s
Writing application : mkvmerge v9.6.0 ('Slave To Your Mind') 64bit
Writing library : libebml v1.3.4 + libmatroska v1.4.5

Video
Format/Info : High Efficiency Video Coding
Format profile : Main [email protected]@Main
Codec ID : V_MPEGH/ISO/HEVC
Duration : 2 h 03 min
Bit rate : 494 kb/s
Width : 720 pixels
Height : 304 pixels
Display aspect ratio : 2.35:1
Frame rate mode : Constant
Frame rate : 23.976 FPS
Color space : YUV
Chroma subsampling : 4:2:0
Bit depth : 10 bits
Bits/(Pixel*Frame) : 0.094
Stream size : 434 MiB (78%)
Writing library : x265 2.1+69-c97c64ab8b8e:[Windows][GCC 6.2.0][64 bit] 10bit

Audio
Format : AAC
Format/Info : Advanced Audio Codec
Format profile : HE-AAC / LC
Codec ID : A_AAC
Duration : 2 h 03 min
Bit rate : 128 kb/s
Channel(s) : 2 channels
Channel positions : Front: L R
Sampling rate : 48.0 kHz / 24.0 kHz
Frame rate : 23.438 FPS (1024 spf)
Compression mode : Lossy
Delay relative to video : 31 ms
Stream size : 112 MiB (16%)

Language : Bengali

Chapters & Subtitles
Chapters: NIL

Subtitles: English (Hardcoded)

Starring

Gargee Roychowdhury; Tota Roychowdhury, Paran Bandyopadhyay, Dwijen Banerjee, Ardhendu Banerjee, Pradip Mukherjee, Alokananda Roy, Anamika Saha, Sohag Sen, Indrani Bhattacharya,

Technical Team
Director: Abhijit Guha & Sudeshna Roy; Producer: Pradip Churiwal; Music: Raja Narayan Deb; DOP: Pravatendu Mondal; Editor: Dujoy Datta Ray: Sound: Tito;

Ripped By: Udbuddho

CarpetBorder.jpg


Synopsis:
Benche Thakar Gaan is set in an old age home where Paromita, a young gerontologist lands up leaving a lucrative career as a psychiatrist in the city. In this home she faces her boss Dr Partho Sinha, a strict disciplinarian, who has built this home for all those who can afford to live well but are not able to live either with their families or alone due to certain circumstances. According to dr Sinha, the inmates are here to spend the sunset years of their lives in peacebut Paromita feels otherwise, she believes there is still a lot to live for in the sunset years too. To Paromita, even the seniors have a right to enjoy, and peace can only come when the mind is happy ...... An old age home is not where you are thrown out, but it can be a home where new bonds can be forged even in later years of life. Benche Thakar Gaan or song of life is a positive look at age which to us is just a number, and its all in the mind.


Uploader's Notes:
This is a downscale from a 720p WebHD. We have reduced the yellow tint in the original web movie, sharpened the background images a bit and cleaned up the audio to some extent.

This is a DDR TinyRip encode. It uses x.265 10-bit encoding for higher compressibility and Compressed 128 Kbps Dolby II audio to compress the original 2.5 GB WebHD into a 350 MB rip. The Quality, as you can see from the screen shots is equivalent or better than the original. DDR TinyRips are meant for those downloaders who want conserve bandwidth and yet enjoy high quality rips.

Be aware that this rip (and all HEVC rips) will not play on many standalone players. You need a compatible standalone video player. You can of course stream it to the large screen TV using a streaming device. On your PC please be sure to use the latest version of video players (VLC (2.1.5 or higher) or Media Player Classic (Ver 1.7.9) or SMPlayer (14.9.0) will work. Earlier versions may not).


IMDB Link:
Not Available



All Credit Goes To Orignal Uploader







Sample



      




      
      


Movie



      




      
      

Share this topic on FacebookShare this topic on GoogleShare this topic on MySpaceShare this topic on TwitterShare this topic on Yahoo




Thanks given by:


Tags:
 

Related Topics

  Subject / Started by Replies Last post
0 Replies
522 Views
Last post July 28, 2016, 09:37:09 PM
by -Ð@Rk.ÐèVi£-
0 Replies
324 Views
Last post December 15, 2016, 07:56:26 AM
by ♥[--K4Krish--]♥
1 Replies
221 Views
Last post December 24, 2016, 01:18:04 PM
by Abhisona
1 Replies
213 Views
Last post December 24, 2016, 01:16:20 PM
by Abhisona
0 Replies
271 Views
Last post December 24, 2016, 09:57:31 PM
by Abhisona




Back to top