+ ShareSpark.net »  :::: Bollywood Zone » Regional Movies » Marathi Movies
|- 1000 Rupees Note (2014) 1080p NFrip x264 AAC MSubs -DDR


1000 Rupees Note (2014) 1080p NFrip x264 AAC MSubs -DDR

0 Members and 1 Guest are viewing this topic.

December 25, 2016, 12:07:17 PM
  • *****************
  • Head Admin
  • Legend Member
  • *****
  • Topic Author
  • Thank You: 4723
  • Reputation: 2346
  • Activity:
    100%
  • Country: in
  • Posts: 16243
  • Topics: 9830
  • Join Date: Mar 2012
  • The Time Is Now......
Torrable - One stop for all your download & upload needs. It's smart, easy and free.




1080p Netflix Rip x264

Marathi AAC Audio

English, French, German & Spanish Subtitles


SPECS

Source: Netflix @ DDR

Format : Matroska
File size : 3.75 GiB
Duration : 1 h 29 min
Overall bit rate : 6 012 kb/s

Format : AVC
Format/Info : Advanced Video Codec
Format profile : [email protected]
Format settings, CABAC : Yes
Format settings, ReFrames : 5 frames
Codec ID : V_MPEG4/ISO/AVC
Duration : 1 h 26 min
Bit rate : 6 000 kb/s
Width : 1 920 pixels
Height : 800 pixels
Display aspect ratio : 2.40:1
Frame rate mode : Constant
Frame rate : 24.000 FPS
Color space : YUV
Chroma subsampling : 4:2:0
Bit depth : 8 bits
Scan type : Progressive
Bits/(Pixel*Frame) : 0.163
Stream size : 3.61 GiB (96%)
Default : Yes
Forced : No
Color range : Limited
Color primaries : BT.709
Transfer characteristics : BT.709
Matrix coefficients : BT.709

Audio
ID : 2
Format : AAC
Format/Info : Advanced Audio Codec
Format profile : LC
Codec ID : A_AAC
Duration : 1 h 26 min
Bit rate : 221 kb/s
Channel(s) : 2 channels
Channel positions : Front: L R
Sampling rate : 48.0 kHz
Frame rate : 46.875 FPS (1024 spf)
Compression mode : Lossy
Stream size : 136 MiB (4%)
Language : Hindi
Default : Yes
Forced : No

Text #1
ID : 3
Format : UTF-8
Codec ID : S_TEXT/UTF8
Codec ID/Info : UTF-8 Plain Text
Duration : 1 h 21 min
Bit rate : 49 b/s
Count of elements : 765
Stream size : 29.3 KiB (0%)
Language : English
Default : Yes
Forced : No

Text #2
ID : 4
Format : UTF-8
Codec ID : S_TEXT/UTF8
Codec ID/Info : UTF-8 Plain Text
Duration : 1 h 25 min
Bit rate : 49 b/s
Count of elements : 790
Stream size : 30.7 KiB (0%)
Language : German
Default : No
Forced : No

Text #3
ID : 5
Format : UTF-8
Codec ID : S_TEXT/UTF8
Codec ID/Info : UTF-8 Plain Text
Duration : 1 h 22 min
Bit rate : 48 b/s
Count of elements : 790
Stream size : 29.5 KiB (0%)
Language : Spanish
Default : No
Forced : No

Text #4
ID : 6
Format : UTF-8
Codec ID : S_TEXT/UTF8
Codec ID/Info : UTF-8 Plain Text
Duration : 1 h 25 min
Bit rate : 50 b/s
Count of elements : 782
Stream size : 31.9 KiB (0%)
Language : French
Default : No
Forced : No
Chapters : No





































Share this topic on FacebookShare this topic on GoogleShare this topic on MySpaceShare this topic on TwitterShare this topic on Yahoo



Thanks given by:


Tags:
 

Related Topics

  Subject / Started by Replies Last post
0 Replies
900 Views
Last post May 18, 2014, 01:52:34 PM
by bakra
1 Replies
307 Views
Last post December 23, 2016, 06:23:28 PM
by PSYCHO
1 Replies
398 Views
Last post December 26, 2016, 11:36:53 PM
by proyer
0 Replies
244 Views
Last post December 25, 2016, 12:12:57 PM
by -Ð@Rk.ÐèVi£-
3 Replies
423 Views
Last post December 30, 2016, 11:06:50 PM
by proyer




Back to top