+ ShareSpark.net »  :::: Bollywood Zone » Regional Movies » Punjabi Movies
|- Chaar Sahibzaade 2 (2016) 720p HD-Rip AVC AC-3 M-Sub [XMR]


Chaar Sahibzaade 2 (2016) 720p HD-Rip AVC AC-3 M-Sub [XMR]

0 Members and 1 Guest are viewing this topic.

December 26, 2016, 08:51:44 AM
  • *****************
  • Head Admin
  • Legend Member
  • *****
  • Topic Author
  • Thank You: 5371
  • Reputation: 2447
  • Activity:
    100%
  • Country: in
  • Posts: 17135
  • Topics: 10348
  • Join Date: Mar 2012
  • The Time Is Now......
]



Format                      : Matroska
Format version              : Version 2
File size                   : 1.41 GiB
Duration                    : 2 h 14 min
Overall bit rate            : 1 502 kb/s

Video
ID                          : 1
Format                      : AVC
Format/Info                 : Advanced Video Codec
Format profile              : [email protected]
Format settings, CABAC      : Yes
Format settings, ReFrames   : 4 frames
Codec ID                    : V_MPEG4/ISO/AVC
Duration                    : 2 h 14 min
Bit rate                    : 1 362 kb/s
Width                       : 1 280 pixels
Height                      : 544 pixels
Display aspect ratio        : 2.35:1
Frame rate mode             : Constant
Frame rate                  : 24.000 FPS
Color space                 : YUV
Chroma subsampling          : 4:2:0
Bit depth                   : 8 bits
Scan type                   : Progressive
Bits/(Pixel*Frame)          : 0.081
Stream size                 : 1.29 GiB (91%)
Title                       : [email protected]

Audio
ID                          : 2
Format                      : AC-3
Format/Info                 : Audio Coding 3
Mode extension              : CM (complete main)
Format settings, Endianness : Big
Codec ID                    : A_AC3
Duration                    : 2 h 14 min
Bit rate mode               : Constant
Bit rate                    : 128 kb/s
Channel(s)                  : 2 channels
Channel positions           : Front: L R
Sampling rate               : 48.0 kHz
Frame rate                  : 31.250 FPS (1536 spf)
Bit depth                   : 16 bits
Compression mode            : Lossy
Stream size                 : 123 MiB (9%)
Language                    : Punjabi


Title                       : [email protected]
Text #1
ID                          : 3
Format                      : UTF-8
Codec ID                    : S_TEXT/UTF8
Codec ID/Info               : UTF-8 Plain Text
Duration                    : 2 h 8 min
Bit rate                    : 66 b/s
Count of elements           : 1474
Stream size                 : 63.0 KiB (0%)
Title                       : [email protected]
Language                    : English
Default                     : Yes

Text #2
ID                          : 4
Format                      : UTF-8
Codec ID                    : S_TEXT/UTF8
Codec ID/Info               : UTF-8 Plain Text
Duration                    : 2 h 7 min
Bit rate                    : 97 b/s
Count of elements           : 1473
Stream size                 : 90.8 KiB (0%)
Title                       : [email protected]
Language                    : Arabic




















Share this topic on FacebookShare this topic on GoogleShare this topic on MySpaceShare this topic on TwitterShare this topic on Yahoo




December 26, 2016, 07:54:06 PM
Reply #1
  • Newbie
  • **
  • Thank You: 0
  • Reputation: 0
  • Activity:
    0%
  • Country: in
  • Posts: 1
  • Topics: 0
  • Join Date: Dec 2016
  • ShareSpark Member

Tags:
 

Related Topics

  Subject / Started by Replies Last post
2 Replies
807 Views
Last post December 25, 2016, 06:38:51 PM
by SKR Movie
1 Replies
718 Views
Last post December 26, 2016, 02:08:53 AM
by Abhisona
0 Replies
647 Views
Last post December 28, 2016, 03:05:06 PM
by PSYCHO
0 Replies
545 Views
Last post December 28, 2016, 06:04:00 PM
by PSYCHO
1 Replies
700 Views
Last post January 05, 2017, 09:14:40 AM
by kirtan5719




Back to top