+ ShareSpark.net »  :::: Bollywood Zone » Regional Movies » Marathi Movies
|- Amhi Satpute (2008) MARATHI DVDRIP AAC X264 5.1 [1GB]

DTH Recharges 20% Back

Amhi Satpute (2008) MARATHI DVDRIP AAC X264 5.1 [1GB]

0 Members and 1 Guest are viewing this topic.

December 25, 2016, 04:30:33 PM
  • Elite Moderator
  • Legend Member
  • ****
  • Topic Author
  • Thank You: 1998
  • Reputation: 286
  • Activity:
    3.8%
  • Country: in
  • Posts: 3722
  • Topics: 2854
  • Join Date: Sep 2016
  • (: EnJOy D LiFe :)
:title:
Amhi Satpute (2008) DVDRIP - AAC X264 5.1 [Marathi]



 :info:

Video
ID                                       : 1
Format                                   : AVC
Format/Info                              : Advanced Video Codec
Format profile                           : [email protected]
Format settings, CABAC                   : Yes
Format settings, ReFrames                : 4 frames
Codec ID                                 : V_MPEG4/ISO/AVC
Duration                                 : 2 h 9 min
Bit rate                                 : 915 kb/s
Width                                    : 720 pixels
Height                                   : 304 pixels
Display aspect ratio                     : 2.35:1
Frame rate mode                          : Constant
Frame rate                               : 29.970 (30000/1001) FPS
Color space                              : YUV
Chroma subsampling                       : 4:2:0
Bit depth                                : 8 bits
Scan type                                : Progressive
Bits/(Pixel*Frame)                       : 0.139
Stream size                              : 848 MiB (82%)
Writing library                          : x264 core 146 r2538 121396c


Audio
ID                                       : 2
Format                                   : AC-3
Format/Info                              : Audio Coding 3
Mode extension                           : CM (complete main)
Format settings, Endianness              : Big
Codec ID                                 : A_AC3
Duration                                 : 2 h 9 min
Bit rate mode                            : Constant
Bit rate                                 : 192 kb/s
Channel(s)                               : 2 channels
Channel positions                        : Front: L R
Sampling rate                            : 48.0 kHz
Frame rate                               : 31.250 FPS (1536 spf)
Bit depth                                : 16 bits
Compression mode                         : Lossy
Stream size                              : 178 MiB (17%)
Default                                  : Yes
Forced                                   : No

Text
ID                                       : 3
Format                                   : VobSub
Muxing mode                              : zlib
Codec ID                                 : S_VOBSUB
Codec ID/Info                            : Picture based subtitle format used on DVDs
Duration                                 : 2 h 8 min
Bit rate                                 : 2 911 b/s
Count of elements                        : 2246
Stream size                              : 2.68 MiB (0%)
Title                                    : [email protected]
Language                                 : English
Default                                  : No
Forced                                   : No


ALL CREDIT GOES TO SAKET [TMB] & shreecds

 :ss:





















 :download:










Share this topic on FacebookShare this topic on GoogleShare this topic on MySpaceShare this topic on TwitterShare this topic on Yahoo

« Last Edit: December 25, 2016, 04:37:43 PM by PSYCHO »


* BUSY *

Thanks given by:


Tags:
 

Related Topics




Back to top