+ ShareSpark.net »  :::: Bollywood Zone » Regional Movies » Regional Movies in Hindi
|- Sharp Shooter (2016) Hindi 720p Untouched WEB-HD AVC - MAXPRO


Sharp Shooter (2016) Hindi 720p Untouched WEB-HD AVC - MAXPRO

0 Members and 1 Guest are viewing this topic.

December 27, 2016, 09:45:39 PM
  • *****************
  • Head Admin
  • Legend Member
  • *****
  • Topic Author
  • Thank You: 4416
  • Reputation: 2296
  • Activity:
    100%
  • Country: in
  • Posts: 15670
  • Topics: 9591
  • Join Date: Mar 2012
  • The Time Is Now......
Torrable - One stop for all your download & upload needs. It's smart, easy and free.


Format : MPEG-4
Format profile : Base Media / Version 2
Codec ID : mp42 (isom/mp42)
File size : 1.49 GiB
Duration : 2h 0mn
Overall bit rate mode : Variable
Overall bit rate : 1 765 Kbps

Video
ID : 1
Format : AVC
Format/Info : Advanced Video Codec
Format profile : [email protected]
Format settings, CABAC : Yes
Format settings, ReFrames : 3 frames
Codec ID : avc1
Codec ID/Info : Advanced Video Coding
Duration : 2h 0mn
Bit rate : 1 637 Kbps
Width : 1 280 pixels
Height : 720 pixels
Display aspect ratio : 16:9
Frame rate mode : Constant
Frame rate : 24.000 fps
Color space : YUV
Chroma subsampling : 4:2:0
Bit depth : 8 bits
Scan type : Progressive
Bits/(Pixel*Frame) : 0.074
Stream size : 1.38 GiB (93%).
Encoded date : UTC 2016-12-22 09:46:19
Tagged date : UTC 2016-12-22 09:46:19
Color range : Limited
Color primaries : BT.709
Transfer characteristics : BT.709
Matrix coefficients : BT.709

Audio
ID : 2
Format : AAC
Format/Info : Advanced Audio Codec
Format profile : LC
Codec ID : 40
Duration : 2h 0mn
Source duration : 2h 0mn
Bit rate mode : Variable
Bit rate : 126 Kbps
Channel(s) : 2 channels
Channel positions : Front: L R
Sampling rate : 44.1 KHz
Frame rate : 43.066 fps (1024 spf)
Compression mode : Lossy
Stream size : 108 MiB (7%)
Source stream size : 108 MiB (7%)
Encoded date : UTC 2016-12-22 09:46:19
Tagged date : UTC 2016-12-22 09:46:19




























Share this topic on FacebookShare this topic on GoogleShare this topic on MySpaceShare this topic on TwitterShare this topic on Yahoo




Tags:
 

Related Topics

  Subject / Started by Replies Last post
1 Replies
316 Views
Last post September 11, 2016, 07:41:54 AM
by ajnabig12
0 Replies
370 Views
Last post September 25, 2016, 04:27:25 AM
by __B!RoH!_MoN__
0 Replies
494 Views
Last post November 27, 2016, 03:19:47 AM
by shahana
0 Replies
195 Views
Last post December 27, 2016, 09:06:23 PM
by Rάήνίјάч1234
0 Replies
375 Views
Last post December 27, 2016, 09:46:46 PM
by -Ð@Rk.ÐèVi£-




Back to top