+ ShareSpark.net »  :::: Bollywood Zone » Regional Movies » Marathi Movies
|- Ticha Umbartha (2016) 1080p WebHD x264 ESub -DDR-Exclusive


Ticha Umbartha (2016) 1080p WebHD x264 ESub -DDR-Exclusive

0 Members and 1 Guest are viewing this topic.

December 28, 2016, 01:39:22 PM
  • *****************
  • Head Admin
  • Legend Member
  • *****
  • Topic Author
  • Thank You: 4544
  • Reputation: 2310
  • Activity:
    100%
  • Country: in
  • Posts: 15880
  • Topics: 9686
  • Join Date: Mar 2012
  • The Time Is Now......
Torrable - One stop for all your download & upload needs. It's smart, easy and free.




SPECS

Source: WEB @ DDR

Format : Matroska
File size : 4.51 GiB
Duration : 1 h 57 min
Overall bit rate : 5 510 kb/s

Video
ID : 1
Format : AVC
Format/Info : Advanced Video Codec
Format profile : [email protected]
Format settings, CABAC : Yes
Format settings, ReFrames : 1 frame
Format settings, GOP : M=1, N=25
Codec ID : V_MPEG4/ISO/AVC
Duration : 1 h 57 min
Bit rate mode : Constant
Bit rate : 5 508 kb/s
Nominal bit rate : 6 000 kb/s
Width : 1 920 pixels
Height : 1 080 pixels
Display aspect ratio : 16:9
Frame rate mode : Constant
Frame rate : 25.000 FPS
Color space : YUV
Chroma subsampling : 4:2:0
Bit depth : 8 bits
Scan type : Progressive
Bits/(Pixel*Frame) : 0.106
Stream size : 4.51 GiB (100%)
Language : English
Default : Yes
Forced : No

Text
ID : 2
Format : UTF-8
Codec ID : S_TEXT/UTF8
Codec ID/Info : UTF-8 Plain Text
Duration : 1 h 56 min
Bit rate : 59 b/s
Count of elements : 1648
Stream size : 50.5 KiB (0%)
Language : English
Default : Yes
Forced : No

































Share this topic on FacebookShare this topic on GoogleShare this topic on MySpaceShare this topic on TwitterShare this topic on Yahoo



Thanks given by:


Tags:
 

Related Topics

  Subject / Started by Replies Last post
1 Replies
419 Views
Last post April 30, 2016, 07:54:10 PM
by yogesh.sagpariya.5
0 Replies
666 Views
Last post May 25, 2016, 02:53:10 PM
by -Ð@Rk.ÐèVi£-
2 Replies
325 Views
Last post December 26, 2016, 11:35:11 PM
by proyer
0 Replies
202 Views
Last post December 28, 2016, 04:19:41 PM
by -Ð@Rk.ÐèVi£-
1 Replies
310 Views
Last post December 28, 2016, 09:52:01 PM
by proyer




Back to top