+ ShareSpark.net »  :::: Dubbed Zone (Dubbed English in Hindi) » TV Shows (Dubbed in Hindi)
|- Arrow S01E01 Hindi 720p – HDTV X264 – Ahmed Maher [Team EDM] ~ 433 MB


Arrow S01E01 Hindi 720p – HDTV X264 – Ahmed Maher [Team EDM] ~ 433 MB

0 Members and 1 Guest are viewing this topic.

December 30, 2016, 09:43:56 AM
  • Addic7ed
  • Royal Member
  • ****
  • Topic Author
  • Thank You: 116
  • Reputation: 78
  • Activity:
    4.6%
  • Country: pk
  • Posts: 1081
  • Topics: 323
  • Join Date: Sep 2012
  • ShareSpark Member


Arrow S01E01 Hindi 720p – HDTV X264 – Ahmed Maher [Team EDM] ~ 433 MB

Format                                   : Matroska
Format version                           : Version 4 / Version 2
File size                                : 433 MiB
Duration                                 : 40 min
Overall bit rate                         : 1 491 kb/s
Writing application                      : mkvmerge v9.5.0 (‘Quiet Fire’) 64bit
Writing library                          : libebml v1.3.4 + libmatroska v1.4.5Video
ID                                       : 1
Format                                   : AVC
Format/Info                              : Advanced Video Codec
Format profile                           : [email protected]
Format settings, CABAC                   : Yes
Format settings, ReFrames                : 4 frames
Codec ID                                 : V_MPEG4/ISO/AVC
Duration                                 : 40 min
Bit rate                                 : 1 255 kb/s
Width                                    : 1 280 pixels
Height                                   : 720 pixels
Display aspect ratio                     : 16:9
Frame rate mode                          : Constant
Frame rate                               : 25.000 FPS
Color space                              : YUV
Chroma subsampling                       : 4:2:0
Bit depth                                : 8 bits
Scan type                                : Progressive
Bits/(Pixel*Frame)                       : 0.054
Stream size                              : 377 MiB (87%)
dd79a61
Language                                 : English
Default                                  : Yes
Forced                                   : No
Color range                              : Limited
Color primaries                          : BT.601 PAL
Transfer characteristics                 : BT.709
Matrix coefficients                      : BT.601Audio
ID                                       : 2
Format                                   : AAC
Format/Info                              : Advanced Audio Codec
Format profile                           : LC
Codec ID                                 : A_AAC
Duration                                 : 40 min
Bit rate                                 : 192 kb/s
Channel(s)                               : 2 channels
Channel positions                        : Front: L R
Sampling rate                            : 48.0 kHz
Frame rate                               : 46.875 FPS (1024 spf)
Compression mode                         : Lossy
Delay relative to video                  : -21 ms
Stream size                              : 55.8 MiB (13%)
Language                                : Hindi
Default                                  : Yes
Forced                                   : No
This is Urdu(PAK Dubbed) Audio
Keep in Mind
Ahmed Maher Thanks
Take It Or Leave It



 








 :download:

Share this topic on FacebookShare this topic on GoogleShare this topic on MySpaceShare this topic on TwitterShare this topic on Yahoo



Thanks given by:


December 30, 2016, 09:55:43 AM
Reply #1
  • LaDLa PriNce
  • Addic7ed (Inactive)
  • Legend Member
  • ****
  • Thank You: 212
  • Reputation: 90
  • Activity:
    4.6%
  • Country: pk
  • Posts: 1708
  • Topics: 161
  • Join Date: Sep 2012
  • I <3 ShareSpark

December 31, 2016, 12:04:02 PM
Reply #2
  • -=[SSX Ka King]=-
  • Admin (Inactive)
  • Royal Member
  • ****
  • Thank You: 565
  • Reputation: 407
  • Activity:
    0%
  • Posts: 1008
  • Topics: 331
  • Join Date: Jul 2012
  • Expertises:
  • Dubbed Movies


Respect the Staff Always.They Never Get Paid For Their Services..

Tags:
 

Related Topics

  Subject / Started by Replies Last post
1 Replies
1151 Views
Last post January 03, 2017, 11:34:05 PM
by azhar0300♥♫
1 Replies
1160 Views
Last post January 13, 2017, 03:56:28 AM
by goldysidhuzz
4 Replies
1615 Views
Last post July 10, 2017, 03:28:22 PM
by Farhan Khan
4 Replies
956 Views
Last post January 13, 2017, 09:34:56 PM
by rajesh kumar kharra
1 Replies
1043 Views
Last post January 13, 2017, 03:41:34 AM
by goldysidhuzz




Back to top