+ ShareSpark.net »  :::: Hollywood Zone » Hollywood Movies (Pre Releases)
|- The Great Wall 2016 HDCAM x264 AAC


The Great Wall 2016 HDCAM x264 AAC

0 Members and 1 Guest are viewing this topic.

December 30, 2016, 05:13:16 PM
  • Begginer
  • **
  • Topic Author
  • Thank You: 7
  • Reputation: 3
  • Activity:
    4.8%
  • Country: in
  • Posts: 52
  • Topics: 14
  • Join Date: Oct 2014
  • ShareSpark Member
Torrable - One stop for all your download & upload needs. It's smart, easy and free.


:info:


Format                                   : Matroska
Format version                           : Version 4 / Version 2
File size                                : 652 MiB
Duration                                 : 1 h 32 min
Overall bit rate                         : 984 kb/s
Encoded date                             : UTC 2016-12-30 07:29:39
Writing application                      : mkvmerge v7.0.0 ('Where We Going') 64bit built on Jun  9 2014 15:16:27
Writing library                          : libebml v1.3.0 + libmatroska v1.4.1

Video
ID                                       : 2
Format                                   : AVC
Format/Info                              : Advanced Video Codec
Format profile                           : [email protected]
Format settings, CABAC                   : Yes
Format settings, ReFrames                : 5 frames
Codec ID                                 : V_MPEG4/ISO/AVC
Duration                                 : 1 h 32 min
Bit rate                                 : 918 kb/s
Width                                    : 720 pixels
Height                                   : 352 pixels
Display aspect ratio                     : 2.045
Frame rate mode                          : Constant
Frame rate                               : 23.976 (24000/1001) FPS
Color space                              : YUV
Chroma subsampling                       : 4:2:0
Bit depth                                : 8 bits
Scan type                                : Progressive
Bits/(Pixel*Frame)                       : 0.151
Stream size                              : 608 MiB (93%)
Writing library                          : x264 core 146 r2538 121396c
Encoding settings                        : cabac=1 / ref=5 / deblock=1:-1:-1 / analyse=0x3:0x113 / me=umh / subme=8 / psy=1 / psy_rd=1.00:0.00 / mixed_ref=1 / me_range=16 / chroma_me=1 / trellis=1 / 8x8dct=1 / cqm=0 / deadzone=21,11 / fast_pskip=1 / chroma_qp_offset=-2 / threads=60 / lookahead_threads=2 / sliced_threads=0 / nr=0 / decimate=1 / interlaced=0 / bluray_compat=0 / constrained_intra=0 / bframes=3 / b_pyramid=2 / b_adapt=2 / b_bias=0 / direct=3 / weightb=1 / open_gop=0 / weightp=2 / keyint=240 / keyint_min=23 / scenecut=40 / intra_refresh=0 / rc_lookahead=50 / rc=2pass / mbtree=1 / bitrate=918 / ratetol=1.0 / qcomp=0.60 / qpmin=10 / qpmax=51 / qpstep=4 / cplxblur=20.0 / qblur=0.5 / vbv_maxrate=62500 / vbv_bufsize=78125 / nal_hrd=none / filler=0 / ip_ratio=1.40 / aq=1:1.00
Default                                  : Yes
Forced                                   : No

Audio
ID                                       : 1
Format                                   : AAC
Format/Info                              : Advanced Audio Codec
Format profile                           : HE-AAC / LC
Codec ID                                 : A_AAC
Duration                                 : 1 h 32 min
Bit rate                                 : 64.0 kb/s
Channel(s)                               : 2 channels
Channel positions                        : Front: L R
Sampling rate                            : 48.0 kHz / 24.0 kHz
Frame rate                               : 23.438 FPS (1024 spf)
Compression mode                         : Lossy
Delay relative to video                  : 31 ms
Stream size                              : 42.4 MiB (7%)
Language                                 : English
Default                                  : Yes
Forced                                   : No

Text
ID                                       : 3
Format                                   : UTF-8
Codec ID                                 : S_TEXT/UTF8
Codec ID/Info                            : UTF-8 Plain Text
Duration                                 : 1 h 16 min
Bit rate                                 : 0 b/s
Count of elements                        : 4
Stream size                              : 209 Bytes (0%)
Default                                  : Yes
Forced                                   : No


:ss:









:download:


Share this topic on FacebookShare this topic on GoogleShare this topic on MySpaceShare this topic on TwitterShare this topic on Yahoo




Tags:
 

Related Topics

  Subject / Started by Replies Last post
0 Replies
543 Views
Last post February 04, 2016, 10:05:21 PM
by Rabasha
1 Replies
818 Views
Last post July 27, 2016, 03:36:37 PM
by rajsaini1178
0 Replies
289 Views
Last post December 28, 2016, 10:14:22 AM
by -Ð@Rk.ÐèVi£-
0 Replies
467 Views
Last post December 28, 2016, 12:18:07 PM
by -Ð@Rk.ÐèVi£-
0 Replies
311 Views
Last post January 01, 2017, 05:22:00 AM
by wroser




Back to top