+ ShareSpark.net »  :::: Bollywood Zone » Regional Movies » Bengali Movies
|- Monchora 2016 720p BENGALI WEB-DL H264 AAC2.0 2GB [DDR]


Flipkart Offer

Monchora 2016 720p BENGALI WEB-DL H264 AAC2.0 2GB [DDR]

0 Members and 1 Guest are viewing this topic.

December 30, 2016, 10:11:31 PM
  • Team SSX
  • Legend Member
  • ***
  • Topic Author
  • Thank You: 1314
  • Reputation: 175
  • Activity:
    100%
  • Country: in
  • Posts: 2477
  • Topics: 1803
  • Join Date: Sep 2016
  • (: EnJOy D LiFe :)
Flipkart Offer
:title:
Monchora 2016 720p WEB-DL H264 AAC2.0 MSubs [DDR]



 :info:

General
Complete name                            : Monchora.2016.720p.WEB-DL.H264.AAC2.0.MSubs-DDR.mkv
Format                                   : Matroska
Format version                           : Version 4 / Version 2
File size                                : 2.05 GiB
Duration                                 : 1 h 31 min
Overall bit rate                         : 3 203 kb/s
Encoded date                             : UTC 2016-12-28 08:15:30
Writing application                      : mkvmerge v9.5.0 ('Quiet Fire') 64bit
Writing library                          : libebml v1.3.4 + libmatroska v1.4.5

Video
ID                                       : 1
Format                                   : AVC
Format/Info                              : Advanced Video Codec
Format profile                           : [email protected]
Format settings, CABAC                   : Yes
Format settings, ReFrames                : 4 frames
Codec ID                                 : V_MPEG4/ISO/AVC
Duration                                 : 1 h 31 min
Bit rate                                 : 3 014 kb/s
Width                                    : 1 280 pixels
Height                                   : 720 pixels
Display aspect ratio                     : 16:9
Frame rate mode                          : Constant
Frame rate                               : 25.000 FPS
Color space                              : YUV
Chroma subsampling                       : 4:2:0
Bit depth                                : 8 bits
Scan type                                : Progressive
Bits/(Pixel*Frame)                       : 0.131
Stream size                              : 1.92 GiB (94%)
Default                                  : Yes
Forced                                   : No

Audio
ID                                       : 2
Format                                   : AAC
Format/Info                              : Advanced Audio Codec
Format profile                           : LC
Codec ID                                 : A_AAC
Duration                                 : 1 h 31 min
Bit rate                                 : 192 kb/s
Channel(s)                               : 2 channels
Channel positions                        : Front: L R
Sampling rate                            : 48.0 kHz
Frame rate                               : 46.875 FPS (1024 spf)
Compression mode                         : Lossy
Delay relative to video                  : -43 ms
Stream size                              : 127 MiB (6%)
Language                                 : Bengali
Default                                  : Yes
Forced                                   : No

Text #1
ID                                       : 3
Format                                   : UTF-8
Codec ID                                 : S_TEXT/UTF8
Codec ID/Info                            : UTF-8 Plain Text
Duration                                 : 1 h 29 min
Bit rate                                 : 75 b/s
Count of elements                        : 1395
Stream size                              : 49.7 KiB (0%)
Language                                 : English
Default                                  : Yes
Forced                                   : No


A DDR Exclusive Release...

 :ss:

















CLICK IMAGE TO ENLARGE

 :download:






SUBTITLES (ENG.srt)





Share this topic on FacebookShare this topic on GoogleShare this topic on MySpaceShare this topic on TwitterShare this topic on Yahoo

« Last Edit: December 30, 2016, 11:05:22 PM by PSYCHO »



Tags:
 

Related Topics

  Subject / Started by Replies Last post
0 Replies
222 Views
Last post May 15, 2016, 11:10:36 AM
by black220
0 Replies
223 Views
Last post August 05, 2016, 04:19:23 PM
by ♥ Mann ♥
0 Replies
345 Views
Last post August 19, 2016, 05:24:57 PM
by ♥ Mann ♥
0 Replies
267 Views
Last post December 12, 2016, 08:41:26 AM
by тнє ωαll 81317
1 Replies
540 Views
Last post January 08, 2017, 08:14:22 AM
by saskay




Back to top