+ ShareSpark.net »  :::: Bollywood Zone » Regional Movies » Bengali Movies
|- Monchora 2016 1080p BENGALI WEB-DL H264 AAC 2.0 3.8GB [DDR]


Monchora 2016 1080p BENGALI WEB-DL H264 AAC 2.0 3.8GB [DDR]

0 Members and 1 Guest are viewing this topic.

December 30, 2016, 11:02:29 PM
  • Team SSX
  • Elite Forces
  • ***
  • Topic Author
  • Thank You: 544
  • Reputation: 111
  • Activity:
    100%
  • Country: in
  • Posts: 1270
  • Topics: 784
  • Join Date: Sep 2016
  • (: EnJOy ThE LiFe :)
Torrable - One stop for all your download & upload needs. It's smart, easy and free.
:title:
Monchora 2016 1080p WEB-DL H264 AAC 2.0 MSubs DDR



 :info:

General
Complete name                            : Monchora.2016.1080p.WEB-DL.H264.AAC2.0.MSubs-DDR.mkv
Format                                   : Matroska
Format version                           : Version 4 / Version 2
File size                                : 3.87 GiB
Duration                                 : 1 h 31 min
Overall bit rate                         : 6 048 kb/s
Encoded date                             : UTC 2016-12-28 08:01:37
Writing application                      : mkvmerge v9.5.0 ('Quiet Fire') 64bit
Writing library                          : libebml v1.3.4 + libmatroska v1.4.5

Video
ID                                       : 1
Format                                   : AVC
Format/Info                              : Advanced Video Codec
Format profile                           : [email protected]
Format settings, CABAC                   : Yes
Format settings, ReFrames                : 4 frames
Codec ID                                 : V_MPEG4/ISO/AVC
Duration                                 : 1 h 31 min
Bit rate                                 : 5 873 kb/s
Width                                    : 1 920 pixels
Height                                   : 1 080 pixels
Display aspect ratio                     : 16:9
Frame rate mode                          : Constant
Frame rate                               : 25.000 FPS
Color space                              : YUV
Chroma subsampling                       : 4:2:0
Bit depth                                : 8 bits
Scan type                                : Progressive
Bits/(Pixel*Frame)                       : 0.113
Stream size                              : 3.74 GiB (97%)
Default                                  : Yes
Forced                                   : No

Audio
ID                                       : 2
Format                                   : AAC
Format/Info                              : Advanced Audio Codec
Format profile                           : LC
Codec ID                                 : A_AAC
Duration                                 : 1 h 31 min
Bit rate                                 : 192 kb/s
Channel(s)                               : 2 channels
Channel positions                        : Front: L R
Sampling rate                            : 48.0 kHz
Frame rate                               : 46.875 FPS (1024 spf)
Compression mode                         : Lossy
Delay relative to video                  : -43 ms
Stream size                              : 127 MiB (3%)
Language                                 : Bengali
Default                                  : Yes
Forced                                   : No

Text #1
ID                                       : 3
Format                                   : UTF-8
Codec ID                                 : S_TEXT/UTF8
Codec ID/Info                            : UTF-8 Plain Text
Duration                                 : 1 h 29 min
Bit rate                                 : 75 b/s
Count of elements                        : 1395
Stream size                              : 49.7 KiB (0%)
Language                                 : English
Default                                  : Yes
Forced                                   : No


A DDR Exclusive Release...

 :ss:















CLICK IMAGE TO ENLARGE

 :download:






SUBTITLES (ENG.srt)




Share this topic on FacebookShare this topic on GoogleShare this topic on MySpaceShare this topic on TwitterShare this topic on Yahoo

« Last Edit: January 01, 2017, 06:08:08 PM by PSYCHO »


Thanks given by:


January 08, 2017, 08:14:22 AM
Reply #1
  • Senior Member
  • ***
  • Thank You: 39
  • Reputation: 3
  • Activity:
    41.6%
  • Country: in
  • Posts: 207
  • Topics: 83
  • Join Date: Dec 2016
  • ShareSpark Member

Tags:
 

Related Topics

  Subject / Started by Replies Last post
0 Replies
209 Views
Last post June 20, 2015, 11:24:58 AM
by blackfish
0 Replies
230 Views
Last post July 04, 2015, 02:55:39 AM
by blackfish
0 Replies
272 Views
Last post July 04, 2015, 01:23:44 PM
by postman
4 Replies
520 Views
Last post December 27, 2016, 05:05:06 PM
by asharun
0 Replies
283 Views
Last post December 30, 2016, 10:11:31 PM
by PSYCHO




Back to top