+ ShareSpark.net »  :::: Hollywood Zone » Hollywood Movies (Pre Releases)
|- Jack Reacher Never Go Back 2016 720p HC HDRip 900MB


Jack Reacher Never Go Back 2016 720p HC HDRip 900MB

0 Members and 1 Guest are viewing this topic.

December 31, 2016, 02:20:34 PM
  • Begginer
  • **
  • Topic Author
  • Thank You: 7
  • Reputation: 3
  • Activity:
    0.4%
  • Country: in
  • Posts: 60
  • Topics: 14
  • Join Date: Oct 2014
  • ShareSpark Member



:info:


Format                                   : Matroska
Format version                           : Version 4 / Version 2
File size                                : 902 MiB
Duration                                 : 1 h 58 min
Overall bit rate                         : 1 068 kb/s
Encoded date                             : UTC 2016-12-31 04:36:03
Writing application                      : mkvmerge v7.0.0 ('Where We Going') 64bit built on Jun  9 2014 15:16:27
Writing library                          : libebml v1.3.0 + libmatroska v1.4.1

Video
ID                                       : 3
Format                                   : AVC
Format/Info                              : Advanced Video Codec
Format profile                           : [email protected]
Format settings, CABAC                   : Yes
Format settings, ReFrames                : 5 frames
Codec ID                                 : V_MPEG4/ISO/AVC
Duration                                 : 1 h 58 min
Bit rate                                 : 1 002 kb/s
Width                                    : 1 280 pixels
Height                                   : 536 pixels
Display aspect ratio                     : 2.40:1
Frame rate mode                          : Constant
Frame rate                               : 29.970 (30000/1001) FPS
Color space                              : YUV
Chroma subsampling                       : 4:2:0
Bit depth                                : 8 bits
Scan type                                : Progressive
Bits/(Pixel*Frame)                       : 0.049
Stream size                              : 846 MiB (94%)
Writing library                          : x264 core 146 r2538 121396c
Default                                  : Yes
Forced                                   : No

Audio
ID                                       : 1
Format                                   : AAC
Format/Info                              : Advanced Audio Codec
Format profile                           : HE-AAC / LC
Codec ID                                 : A_AAC
Duration                                 : 1 h 58 min
Bit rate                                 : 64.0 kb/s
Channel(s)                               : 2 channels
Channel positions                        : Front: L R
Sampling rate                            : 48.0 kHz / 24.0 kHz
Frame rate                               : 23.438 FPS (1024 spf)
Compression mode                         : Lossy
Delay relative to video                  : 31 ms
Stream size                              : 54.1 MiB (6%)
Language                                 : English
Default                                  : Yes
Forced                                   : No

Text
ID                                       : 2
Format                                   : UTF-8
Codec ID                                 : S_TEXT/UTF8
Codec ID/Info                            : UTF-8 Plain Text
Duration                                 : 36 min 0 s
Bit rate                                 : 0 b/s
Count of elements                        : 3
Stream size                              : 145 Bytes (0%)
Default                                  : Yes
Forced                                   : No



:ss:










:download:


Share this topic on FacebookShare this topic on GoogleShare this topic on MySpaceShare this topic on TwitterShare this topic on Yahoo




Tags:
 

Related Topics

  Subject / Started by Replies Last post
0 Replies
945 Views
Last post July 01, 2016, 10:56:02 AM
by Rabasha
0 Replies
648 Views
Last post December 31, 2016, 09:13:05 AM
by fraules_dhq
1 Replies
298 Views
Last post January 17, 2017, 06:52:36 PM
by Vagabond
1 Replies
325 Views
Last post January 18, 2017, 07:02:44 PM
by saskay
2 Replies
708 Views
Last post January 22, 2017, 03:13:59 AM
by vish790




Back to top