+ ShareSpark.net »  :::: Bollywood Zone » Regional Movies » Regional Movies in Hindi
|- 24 Time Story 2016 Hindi Dubbed DTHRip 700MB


24 Time Story 2016 Hindi Dubbed DTHRip 700MB

0 Members and 1 Guest are viewing this topic.

December 31, 2016, 02:59:28 PM
  • Begginer
  • **
  • Topic Author
  • Thank You: 7
  • Reputation: 3
  • Activity:
    1.2%
  • Country: in
  • Posts: 58
  • Topics: 14
  • Join Date: Oct 2014
  • ShareSpark Member
Torrable - One stop for all your download & upload needs. It's smart, easy and free.



:info:



Format                                   : Matroska
Format version                           : Version 4 / Version 2
File size                                : 695 MiB
Duration                                 : 2 h 20 min
Overall bit rate                         : 691 kb/s
Encoded date                             : UTC 2016-12-31 07:59:03
Writing application                      : mkvmerge v7.0.0 ('Where We Going') 64bit built on Jun  9 2014 15:16:27
Writing library                          : libebml v1.3.0 + libmatroska v1.4.1

Video
ID                                       : 1
Format                                   : AVC
Format/Info                              : Advanced Video Codec
Format profile                           : [email protected]
Format settings, CABAC                   : Yes
Format settings, ReFrames                : 4 frames
Codec ID                                 : V_MPEG4/ISO/AVC
Duration                                 : 2 h 20 min
Bit rate                                 : 533 kb/s
Width                                    : 854 pixels
Height                                   : 418 pixels
Display aspect ratio                     : 2.050
Frame rate mode                          : Variable
Frame rate                               : 30.000 FPS
Color space                              : YUV
Chroma subsampling                       : 4:2:0
Bit depth                                : 8 bits
Scan type                                : Progressive
Bits/(Pixel*Frame)                       : 0.050
Stream size                              : 537 MiB (77%)
Default                                  : Yes
Forced                                   : No
Color range                              : Limited
Color primaries                          : BT.601 NTSC
Transfer characteristics                 : BT.709
Matrix coefficients                      : BT.601

Audio
ID                                       : 2
Format                                   : AAC
Format/Info                              : Advanced Audio Codec
Format profile                           : LC
Codec ID                                 : A_AAC
Duration                                 : 2 h 20 min
Bit rate                                 : 154 kb/s
Channel(s)                               : 2 channels
Channel positions                        : Front: L R
Sampling rate                            : 44.1 kHz
Frame rate                               : 43.066 FPS (1024 spf)
Compression mode                         : Lossy
Stream size                              : 155 MiB (22%)
Default                                  : Yes
Forced                                   : No

Text
ID                                       : 3
Format                                   : UTF-8
Codec ID                                 : S_TEXT/UTF8
Codec ID/Info                            : UTF-8 Plain Text
Duration                                 : 1 h 46 min
Bit rate                                 : 0 b/s
Count of elements                        : 6
Stream size                              : 325 Bytes (0%)
Default                                  : Yes
Forced                                   : No




:ss:











:download:




Share this topic on FacebookShare this topic on GoogleShare this topic on MySpaceShare this topic on TwitterShare this topic on Yahoo

« Last Edit: December 31, 2016, 03:53:39 PM by waseemrajasaifi »



Tags:
 

Related Topics





Back to top