+ ShareSpark.net »  :::: Bollywood Zone » Bollywood Movies (Pre Releases)
|- Moh Maya Money (2016) PDVDRip - x264 - AAC 2.0 [DDR-Exclusive]


Moh Maya Money (2016) PDVDRip - x264 - AAC 2.0 [DDR-Exclusive]

0 Members and 1 Guest are viewing this topic.

January 01, 2017, 01:47:08 AM
  • Begginer
  • **
  • Topic Author
  • Thank You: 23
  • Reputation: -3
  • Activity:
    0%
  • Posts: 97
  • Topics: 99
  • Join Date: Jun 2012
  • ShareSpark Member







Code: [Select]
Format : Matroska
File size : 698 MiB
Duration : 1 h 47 min
Overall bit rate mode : Variable
Overall bit rate : 908 kb/s

Video
Format : AVC
Format/Info : Advanced Video Codec
Format profile : [email protected]
Format settings, CABAC : Yes
Format settings, ReFrames : 16 frames
Codec ID : V_MPEG4/ISO/AVC
Duration : 1 h 47 min
Bit rate mode : Variable
Bit rate : 842 kb/s
Maximum bit rate : 62.5 Mb/s
Width : 640 pixels
Height : 272 pixels
Display aspect ratio : 2.35:1
Frame rate mode : Constant
Frame rate : 23.976 (24000/1001) FPS
Color space : YUV
Chroma subsampling : 4:2:0
Bit depth : 8 bits
Scan type : Progressive
Bits/(Pixel*Frame) : 0.202
Stream size : 647 MiB (93%)
Writing library : x264 core 148 r2744 b97ae06
Default : Yes
Forced : No
Color range : Limited
Color primaries : BT.601 NTSC
Transfer characteristics : BT.601
Matrix coefficients : BT.601

Audio
Format : AAC
Format/Info : Advanced Audio Codec
Format profile : LC
Codec ID : A_AAC
Duration : 1 h 47 min
Bit rate : 64.0 kb/s
Channel(s) : 2 channels
Channel positions : Front: L R
Sampling rate : 48.0 kHz
Frame rate : 46.875 FPS (1024 spf)
Compression mode : Lossy
Delay relative to video : 9 ms
Stream size : 49.2 MiB (7%)
Language : Hindi
Default : Yes
Forced : No

Chapters = YES














SINGLE DIRECT FAST LINKS

Code: [Select]
http://www.heroupload.com/43115d22b69dc089/Moh.Maya.Money.2016.1CD.x264.PDvDRip.AAC.2.0-DDR.mkv

Share this topic on FacebookShare this topic on GoogleShare this topic on MySpaceShare this topic on TwitterShare this topic on Yahoo




Tags:
 

Related Topics





Back to top