+ ShareSpark.net »  :::: Bollywood Zone » Bollywood Movies (Pre Releases)
|- Dangal (2016) 720p - PDVDRip - X264 - AC3 - Esubs - [XMR]


  • Dangal (2016) 720p - PDVDRip - X264 - AC3 - Esubs - [XMR] 3 2
Currently:  

Dangal (2016) 720p - PDVDRip - X264 - AC3 - Esubs - [XMR]

0 Members and 1 Guest are viewing this topic.

January 01, 2017, 02:13:40 AM
  • Begginer
  • **
  • Topic Author
  • Thank You: 22
  • Reputation: -4
  • Activity:
    0%
  • Posts: 97
  • Topics: 99
  • Join Date: Jun 2012
  • ShareSpark Member



Code: [Select]
Format                      : Matroska
Format version              : Version 2
File size                   : 1.40 GiB
Duration                    : 2 h 38 min
Overall bit rate            : 1 259 kb/s
Encoded date                : UTC 2016-12-31 08:29:17
Writing application         : mkvmerge v8.5.2 ('Crosses') 32bit
Writing library             : libebml v1.3.3 + libmatroska v1.4.4

Video
ID                          : 1
Format                      : AVC
Format/Info                 : Advanced Video Codec
Format profile              : [email protected]
Format settings, CABAC      : Yes
Format settings, ReFrames   : 4 frames
Codec ID                    : V_MPEG4/ISO/AVC
Duration                    : 2 h 38 min
Bit rate                    : 1 130 kb/s
Width                       : 1 280 pixels
Height                      : 544 pixels
Display aspect ratio        : 2.35:1
Frame rate mode             : Constant
Frame rate                  : 25.000 FPS
Color space                 : YUV
Chroma subsampling          : 4:2:0
Bit depth                   : 8 bits
Scan type                   : Progressive
Bits/(Pixel*Frame)          : 0.065
Stream size                 : 1.25 GiB (90%)
Title                       : [email protected]
Default                     : Yes
Forced                      : No

Audio
ID                          : 2
Format                      : AC-3
Format/Info                 : Audio Coding 3
Codec ID                    : A_AC3
Duration                    : 2 h 38 min
Bit rate mode               : Constant
Bit rate                    : 128 kb/s
Channel(s)                  : 2 channels
Channel positions           : Front: L R
Sampling rate               : 44.1 kHz
Frame rate                  : 28.711 FPS (1536 spf)
Bit depth                   : 16 bits
Compression mode            : Lossy
Stream size                 : 145 MiB (10%)
Title                       : [email protected]
Language                    : HINDI
Default                     : Yes
Forced                      : No














SINGLE DIRECT FAST LINKS


Code: [Select]
http://www.heroupload.com/8509fa203b4b4f3c/Dangal.2016.720p.PDVDRip.X264.AC3-XMR.mkv

Share this topic on FacebookShare this topic on GoogleShare this topic on MySpaceShare this topic on TwitterShare this topic on Yahoo



Thanks given by:


Tags:
 

Related Topics





Back to top