+ ShareSpark.net »  :::: Bollywood Zone » Indian TV Shows
|- The Kapil Sharma Show (2017) Ep71 Untouched WEB-DL AAC - Hon3yHD


The Kapil Sharma Show (2017) Ep71 Untouched WEB-DL AAC - Hon3yHD

0 Members and 1 Guest are viewing this topic.

January 02, 2017, 08:04:30 AM
  • Global Moderator
  • Legend Member
  • *****
  • Topic Author
  • Thank You: 1507
  • Reputation: 332
  • Activity:
    27.2%
  • Country: in
  • Posts: 3078
  • Topics: 1923
  • Join Date: Dec 2013
  • ShareSpark Member
   
The Kapil Sharma Show (2017) Ep71 Untouched WEB-DL AAC - Hon3yHD



Poster






   









General

Format                                   : MPEG-4
Format profile                           : Base Media
Codec ID                                 : isom (isom/iso2/avc1/mp41)
File size                                : 479 MiB
Duration                                 : 1 h 0 min
Overall bit rate mode                    : Variable
Overall bit rate                         : 1 099 kb/s
Writing application                      : Lavf56.40.101

Video
ID                                       : 1
Format                                   : AVC
Format/Info                              : Advanced Video Codec
Format profile                           : [email protected]
Format settings, CABAC                   : Yes
Format settings, ReFrames                : 3 frames
Format settings, GOP                     : M=1, N=50
Codec ID                                 : avc1
Codec ID/Info                            : Advanced Video Coding
Duration                                 : 1 h 0 min
Bit rate                                 : 998 kb/s
Width                                    : 640 pixels
Height                                   : 338 pixels
Display aspect ratio                     : 1.893
Frame rate mode                          : Constant
Frame rate                               : 25.000 FPS
Color space                              : YUV
Chroma subsampling                       : 4:2:0
Bit depth                                : 8 bits
Scan type                                : Progressive
Bits/(Pixel*Frame)                       : 0.184
Stream size                              : 434 MiB (91%)
Writing library                          : Zencoder Video Encoding System
Color range                              : Limited
Color primaries                          : BT.709
Transfer characteristics                 : BT.709
Matrix coefficients                      : BT.709

Audio
ID                                       : 2
Format                                   : AAC
Format/Info                              : Advanced Audio Codec
Format profile                           : LC
Codec ID                                 : 40
Duration                                 : 1 h 0 min
Bit rate mode                            : Variable
Bit rate                                 : 96.0 kb/s
Maximum bit rate                         : 105 kb/s
Channel(s)                               : 2 channels
Channel positions                        : Front: L R
Sampling rate                            : 44.1 kHz
Frame rate                               : 43.066 FPS (1024 spf)
Compression mode                         : Lossy
Stream size                              : 41.8 MiB (9%)
Default                                  : Yes
Alternate group                          : 1



All Credit Goes To Orignal Uploader




      












      
      

Share this topic on FacebookShare this topic on GoogleShare this topic on MySpaceShare this topic on TwitterShare this topic on Yahoo

« Last Edit: January 02, 2017, 08:12:13 AM by тнє ωαll 81317 »



Thanks given by:


January 03, 2017, 06:48:14 AM
Reply #1
  • Special Member
  • ****
  • Thank You: 58
  • Reputation: 33
  • Activity:
    0%
  • Country: in
  • Posts: 751
  • Topics: 54
  • Join Date: Dec 2013
  • ShareSpark Member

Tags:
 

Related Topics

  Subject / Started by Replies Last post
1 Replies
412 Views
Last post November 21, 2016, 08:45:42 AM
by -Ð@Rk.ÐèVi£-
1 Replies
619 Views
Last post January 03, 2017, 05:25:27 PM
by NikS97
5 Replies
773 Views
Last post January 09, 2017, 01:16:43 PM
by NikS97
1 Replies
647 Views
Last post January 09, 2017, 07:06:20 PM
by fraules_dhq
2 Replies
375 Views
Last post June 18, 2017, 05:34:47 PM
by ~DoSANJiT




Back to top