+ ShareSpark.net »  :::: Dubbed Zone (Dubbed English in Hindi) » English Movies Dubbed in Hindi » High Resolution Movies
|- The Shallows (2016) BluRay 1080p Esub x264 Dual Audio Hindi DD 2.0- English DD 5.1[Hon3y] 3GB


The Shallows (2016) BluRay 1080p Esub x264 Dual Audio Hindi DD 2.0- English DD 5.1[Hon3y] 3GB

0 Members and 1 Guest are viewing this topic.

January 02, 2017, 10:37:22 PM
  • Team SSX
  • Legend Member
  • ***
  • Topic Author
  • Thank You: 1343
  • Reputation: 180
  • Activity:
    100%
  • Country: in
  • Posts: 2498
  • Topics: 1821
  • Join Date: Sep 2016
  • (: EnJOy D LiFe :)
:title:
The Shallows (2016) BluRay 1080p x264 Dual Audio [Hindi DD 2.0- English DD 5.1]ESub...Hon3y



 :info:

General
Format                      : Matroska
Format version              : Version 4 / Version 2
File size                   : 3.00 GiB
Duration                    : 1 h 26 min
Overall bit rate            : 4 984 kb/s
Movie name                  : The [email protected]

Video
Format                      : AVC
Format/Info                 : Advanced Video Codec
Format profile              : [email protected]
Format settings, CABAC      : Yes
Format settings, ReFrames   : 5 frames
Codec ID                    : V_MPEG4/ISO/AVC
Duration                    : 1 h 26 min
Bit rate                    : 4 526 kb/s
Width                       : 1 920 pixels
Height                      : 800 pixels
Display aspect ratio        : 2.40:1
Frame rate mode             : Constant
Frame rate                  : 23.976 (24000/1001) FPS
Color space                 : YUV
Chroma subsampling          : 4:2:0
Bit depth                   : 8 bits
Scan type                   : Progressive
Bits/(Pixel*Frame)          : 0.123
Stream size                 : 2.73 GiB (91%)
Title                       : [email protected]

Audio 1
Format                      : AC-3
Format/Info                 : Audio Coding 3
Format profile              : Dolby Digital
Mode extension              : CM (complete main)
Format settings, Endianness : Big
Codec ID                    : A_AC3
Duration                    : 1 h 26 min
Bit rate mode               : Constant
Bit rate                    : 224 kb/s
Channel(s)                  : 2 channels
Channel positions           : Front: L R
Sampling rate               : 48.0 kHz
Frame rate                  : 31.250 FPS (1536 spf)
Bit depth                   : 16 bits
Compression mode            : Lossy
Stream size                 : 138 MiB (4%)
Title                       : [email protected]
Language                    : Hindi
Default                     : Yes
Forced                      : Yes

Audio 2
Format                      : AC-3
Format/Info                 : Audio Coding 3
Mode extension              : CM (complete main)
Format settings, Endianness : Big
Codec ID                    : A_AC3
Duration                    : 1 h 26 min
Bit rate mode               : Constant
Bit rate                    : 224 kb/s
Channel(s)                  : 6 channels
Channel positions           : Front: L C R, Side: L R, LFE
Sampling rate               : 48.0 kHz
Frame rate                  : 31.250 FPS (1536 spf)
Bit depth                   : 16 bits
Compression mode            : Lossy
Stream size                 : 138 MiB (4%)
Title                       : [email protected]
Language                    : English
Default                     : No

Subtitle 1
Format                      : PGS
Muxing mode                 : zlib
Codec ID                    : S_HDMV/PGS
Codec ID/Info               : Picture based subtitle format used on BDs/HD-DVDs
Duration                    : 1 h 25 min
Bit rate                    : 5 728 b/s
Count of elements           : 1847
Stream size                 : 3.51 MiB (0%)
Title                       : [email protected]
Language                    : English
Default                     : No


Encoder : [email protected]

 :ss:

















CLICK IMAGE TO ENLARGE

 :download:




Share this topic on FacebookShare this topic on GoogleShare this topic on MySpaceShare this topic on TwitterShare this topic on Yahoo

« Last Edit: January 02, 2017, 10:39:56 PM by PSYCHO »


Thanks given by:


January 03, 2017, 08:56:35 PM
Reply #1
  • Elite Member
  • ***
  • Thank You: 477
  • Reputation: 167
  • Activity:
    0%
  • Country: bd
  • Posts: 411
  • Topics: 105
  • Join Date: Feb 2013
  • ShareSpark Member

Tags:
 

Related Topics

  Subject / Started by Replies Last post
0 Replies
362 Views
Last post September 14, 2016, 08:03:48 AM
by -Ð@Rk.ÐèVi£-
0 Replies
401 Views
Last post December 30, 2016, 02:57:07 AM
by waseemrajasaifi
1 Replies
1013 Views
Last post December 30, 2016, 10:22:53 AM
by sme_sarkar
0 Replies
448 Views
Last post December 30, 2016, 03:40:21 AM
by Rάήνίјάч1234
0 Replies
309 Views
Last post March 22, 2017, 08:18:24 PM
by ~HD-PLUS~




Back to top