+ ShareSpark.net »  :::: Dubbed Zone (Dubbed English in Hindi) » TV Shows (Dubbed in Hindi)
|-  Arrow S01E02 Hindi 720p - HDTV X264 - Ahmed Maher [Team EDM]


Arrow S01E02 Hindi 720p - HDTV X264 - Ahmed Maher [Team EDM]

0 Members and 1 Guest are viewing this topic.

January 03, 2017, 07:57:45 PM
  • Addic7ed
  • Royal Member
  • ****
  • Topic Author
  • Thank You: 89
  • Reputation: 72
  • Activity:
    10.4%
  • Country: pk
  • Posts: 1043
  • Topics: 321
  • Join Date: Sep 2012
  • ShareSpark Member
Torrable - One stop for all your download & upload needs. It's smart, easy and free.


Arrow S01E02 Hindi 720p - HDTV X264 - Ahmed Maher [Team EDM]



General

Complete name              : Arrow S01E02 Hindi 720p - HDTV X264 - Ahmed Maher [Team EDM].mkv
Format                  : Matroska
Format version              : Version 4 / Version 2
File size                : 456 MiB
Duration                 : 41 min
Overall bit rate             : 1 491 kb/s
Movie name                : Arrow S01E02 Hindi 720p - HDTV X264 - Ahmed Maher [Team EDM]
Encoded date               : UTC 2016-12-27 16:50:11
Writing application           : mkvmerge v9.5.0 ('Quiet Fire') 64bit
Writing library             : libebml v1.3.4 + libmatroska v1.4.5

Video
ID                    : 1
Format                  : AVC
Format/Info               : Advanced Video Codec
Format profile              : Main@L4
Format settings, CABAC          : Yes
Format settings, ReFrames        : 4 frames
Codec ID                 : V_MPEG4/ISO/AVC
Duration                 : 41 min
Bit rate                 : 1 255 kb/s
Width                  : 1 280 pixels
Height                  : 720 pixels
Display aspect ratio           : 16:9
Frame rate mode             : Constant
Frame rate                : 25.000 FPS
Color space               : YUV
Chroma subsampling            : 4:2:0
Bit depth                : 8 bits
Scan type                : Progressive
Bits/(Pixel*Frame)            : 0.054
Stream size               : 377 MiB (87%)
Title                  : Arrow S01E02 Hindi 720p - HDTV X264 - Ahmed Maher [Team EDM]
Writing library             : x264 core 142 r2479 dd79a61
Language                 : English
Default                 : Yes
Forced                  : No
Color range               : Limited
Color primaries             : BT.601 PAL
Transfer characteristics         : BT.709
Matrix coefficients           : BT.601

Audio
ID                    : 2
Format                  : AAC
Format/Info               : Advanced Audio Codec
Format profile              : LC
Codec ID                 : A_AAC
Duration                 : 40 min
Bit rate                 : 192 kb/s
Channel(s)                : 2 channels
Channel positions            : Front: L R
Sampling rate              : 48.0 kHz
Frame rate                : 46.875 FPS (1024 spf)
Compression mode             : Lossy
Delay relative to video         : -21 ms
Stream size               : 55.8 MiB (13%)
Title                  : Arrow S01E02 Hindi 720p - HDTV X264 - Ahmed Maher [Team EDM]
Language                 : Hindi
Default                 : Yes
Forced                  : No



This is Urdu(PAK Dubbed) Audio
Keep in Mind
Ahmed Maher Thanks
Take It Or Leave It










Share this topic on FacebookShare this topic on GoogleShare this topic on MySpaceShare this topic on TwitterShare this topic on Yahoo



Thanks given by:


January 03, 2017, 11:34:05 PM
Reply #1
  • LaDLa PriNce
  • Addic7ed (Inactive)
  • Legend Member
  • ****
  • Thank You: 206
  • Reputation: 90
  • Activity:
    19.6%
  • Country: pk
  • Posts: 1642
  • Topics: 147
  • Join Date: Sep 2012
  • I <3 ShareSpark

Tags:
 

Related Topics





Back to top