+ ShareSpark.net »  :::: Dubbed Zone (Dubbed English in Hindi) » TV Shows (Dubbed in Hindi)
|- The True Story of the Internet Browser Wars (Hindi) 720p HDTV x264 AAC 750MB


No COST EMI

The True Story of the Internet Browser Wars (Hindi) 720p HDTV x264 AAC 750MB

0 Members and 1 Guest are viewing this topic.

January 04, 2017, 02:52:25 PM
  • Begginer
  • **
  • Topic Author
  • Thank You: 8
  • Reputation: 3
  • Activity:
    0%
  • Country: in
  • Posts: 60
  • Topics: 14
  • Join Date: Oct 2014
  • ShareSpark Member



:info:


Format                                   : Matroska
Format version                           : Version 4 / Version 2
File size                                : 751 MiB
Duration                                 : 42 min 32 s
Overall bit rate                         : 2 467 kb/s
Encoded date                             : UTC 2017-01-03 22:15:31
Writing application                      : mkvmerge v7.0.0 ('Where We Going') 64bit built on Jun  9 2014 15:16:27
Writing library                          : libebml v1.3.0 + libmatroska v1.4.1

Video
ID                                       : 1
Format                                   : AVC
Format/Info                              : Advanced Video Codec
Format profile                           : [email protected]
Format settings, CABAC                   : Yes
Format settings, ReFrames                : 4 frames
Codec ID                                 : V_MPEG4/ISO/AVC
Duration                                 : 42 min 32 s
Bit rate                                 : 2 270 kb/s
Width                                    : 1 280 pixels
Height                                   : 720 pixels
Display aspect ratio                     : 16:9
Frame rate mode                          : Constant
Frame rate                               : 29.970 FPS
Color space                              : YUV
Chroma subsampling                       : 4:2:0
Bit depth                                : 8 bits
Scan type                                : Progressive
Bits/(Pixel*Frame)                       : 0.082
Stream size                              : 691 MiB (92%)
Language                                 : English
Default                                  : Yes
Forced                                   : No
Color range                              : Limited
Color primaries                          : BT.709
Transfer characteristics                 : BT.709
Matrix coefficients                      : BT.709

Audio
ID                                       : 2
Format                                   : AAC
Format/Info                              : Advanced Audio Codec
Format profile                           : LC
Codec ID                                 : A_AAC
Duration                                 : 42 min 32 s
Bit rate                                 : 192 kb/s
Channel(s)                               : 2 channels
Channel positions                        : Front: L R
Sampling rate                            : 44.1 kHz
Frame rate                               : 43.066 FPS (1024 spf)
Compression mode                         : Lossy
Delay relative to video                  : -23 ms
Stream size                              : 58.6 MiB (8%)
Language                                 : Hindi
Default                                  : Yes
Forced                                   : No



:ss:










:download:



Share this topic on FacebookShare this topic on GoogleShare this topic on MySpaceShare this topic on TwitterShare this topic on Yahoo



Thanks given by:


January 05, 2017, 06:12:20 AM
Reply #1
  • Begginer
  • **
  • Thank You: 0
  • Reputation: 0
  • Activity:
    1%
  • Posts: 90
  • Topics: 2
  • Join Date: Oct 2014
  • ShareSpark Member
13:00 to 13:27 (minute:second) tk no hindi audio magar english audio hai vo bhi kam audio k sath

Tags:
 

Related Topics

  Subject / Started by Replies Last post
1 Replies
1201 Views
Last post July 27, 2011, 05:54:22 PM
by Admin ♥♫
0 Replies
539 Views
Last post October 01, 2013, 11:19:22 PM
by Prince71482
1 Replies
561 Views
Last post October 17, 2013, 09:14:02 PM
by ıllıllı αнʍє иυя ıllıllı
0 Replies
722 Views
Last post July 24, 2015, 12:13:57 AM
by Ńαʌєєи
0 Replies
513 Views
Last post April 12, 2017, 01:55:05 PM
by exdking



Back to top