+ ShareSpark.net »  :::: Dubbed Zone (Dubbed English in Hindi) » English Movies Dubbed in Hindi » Dubbed Hindi Audio Files
|- Miss Peregrines Home for Peculiar Children 2016 Hindi Aud AAC @ 128kbps 48kHz/ 64kbps 44.1kHz


Flipkart Offer

Miss Peregrines Home for Peculiar Children 2016 Hindi Aud AAC @ 128kbps 48kHz/ 64kbps 44.1kHz

0 Members and 1 Guest are viewing this topic.

January 06, 2017, 09:37:43 PM
  • Team SSX
  • Legend Member
  • ***
  • Topic Author
  • Thank You: 1314
  • Reputation: 175
  • Activity:
    100%
  • Country: in
  • Posts: 2477
  • Topics: 1803
  • Join Date: Sep 2016
  • (: EnJOy D LiFe :)
Flipkart Offer
:title:
Miss Peregrines Home for Peculiar Children 2016 Hindi Aud AAC @ 128kbps 48kHz



 :info:

Format : Matroska
Format version : Version 4 / Version 2
File size : 117 MiB
Duration : 2 h 6 min
Overall bit rate : 129 kb/s
Writing application : mkvmerge v9.7.1 ('Pandemonium') 32bit
Writing library : libebml v1.3.4 + libmatroska v1.4.5

128kbps

Audio
Format : AAC
Format/Info : Advanced Audio Codec
Format profile : LC
Codec ID : A_AAC
Duration : 2 h 6 min
Bit rate : 128 kb/s
Channel(s) : 2 channels
Channel positions : Front: L R
Sampling rate : 48.0 kHz
Frame rate : 46.875 FPS (1024 spf)
Compression mode : Lossy
Stream size : 116 MiB
Language : Hindi
Default : Yes
Forced : No


64kbps

Audio
Format : AAC
Format/Info : Advanced Audio Codec
Format profile : HE-AAC / LC
Codec ID : A_AAC
Duration : 2 h 6 min
Bit rate : 64 kb/s
Channel(s) : 2 channels
Channel positions : Front: L R
Sampling rate : 44.1 kHz / 22.05 kHz
Frame rate : 21.533 FPS (1024 spf)
Compression mode : Lossy
Stream size : 58.8 MiB
Language : Hindi
Default : Yes
Forced : No


AUDIO SOURCE : SNOWDON

 :download:

128kbps





64kbps









Share this topic on FacebookShare this topic on GoogleShare this topic on MySpaceShare this topic on TwitterShare this topic on Yahoo

« Last Edit: January 09, 2017, 08:15:36 PM by PSYCHO »



Tags:
 

Related Topics





Back to top