+ ShareSpark.net »  :::: Bollywood Zone » Indian TV Shows
|- The Kapil Sharma Show (2017) Ep72 Untouched WEB - DL AAC - Hon3yHD


The Kapil Sharma Show (2017) Ep72 Untouched WEB - DL AAC - Hon3yHD

0 Members and 1 Guest are viewing this topic.

January 08, 2017, 08:34:16 AM
  • Legend
  • Legend Member
  • ***
  • Topic Author
  • Thank You: 1582
  • Reputation: 345
  • Activity:
    19.8%
  • Country: in
  • Posts: 3223
  • Topics: 1966
  • Join Date: Dec 2013
  • ShareSpark Member
   
The Kapil Sharma Show (2017) Ep72 Untouched WEB - DL AAC - Hon3yHD



Poster















General


Format                                   : MPEG-4
Format profile                           : Base Media
Codec ID                                 : isom (isom/iso2/avc1/mp41)
File size                                : 500 MiB
Duration                                 : 1 h 3 min
Overall bit rate mode                    : Variable
Overall bit rate                         : 1 102 kb/s
Writing application                      : Lavf56.40.101

Video
ID                                       : 1
Format                                   : AVC
Format/Info                              : Advanced Video Codec
Format profile                           : [email protected]
Format settings, CABAC                   : Yes
Format settings, ReFrames                : 3 frames
Format settings, GOP                     : M=1, N=50
Codec ID                                 : avc1
Codec ID/Info                            : Advanced Video Coding
Duration                                 : 1 h 3 min
Bit rate                                 : 1 000 kb/s
Width                                    : 640 pixels
Height                                   : 338 pixels
Display aspect ratio                     : 1.893
Frame rate mode                          : Constant
Frame rate                               : 25.000 FPS
Color space                              : YUV
Chroma subsampling                       : 4:2:0
Bit depth                                : 8 bits
Scan type                                : Progressive
Bits/(Pixel*Frame)                       : 0.185
Stream size                              : 454 MiB (91%)
Writing library                          : Zencoder Video Encoding System
Color range                              : Limited
Color primaries                          : BT.709
Transfer characteristics                 : BT.709
Matrix coefficients                      : BT.709

Audio
ID                                       : 2
Format                                   : AAC
Format/Info                              : Advanced Audio Codec
Format profile                           : LC
Codec ID                                 : 40
Duration                                 : 1 h 3 min
Bit rate mode                            : Variable
Bit rate                                 : 96.0 kb/s
Maximum bit rate                         : 103 kb/s
Channel(s)                               : 2 channels
Channel positions                        : Front: L R
Sampling rate                            : 44.1 kHz
Frame rate                               : 43.066 FPS (1024 spf)
Compression mode                         : Lossy
Stream size                              : 43.6 MiB (9%)
Default                                  : Yes
Alternate group                          : 1



All Credit Goes To Orignal Uploader




      












      
      

Share this topic on FacebookShare this topic on GoogleShare this topic on MySpaceShare this topic on TwitterShare this topic on Yahoo

« Last Edit: January 08, 2017, 09:42:15 AM by тнє ωαll 81317 »



Thanks given by:


January 08, 2017, 11:23:32 AM
Reply #1
  • Devoted Member
  • **
  • Thank You: 40
  • Reputation: 11
  • Activity:
    19.4%
  • Country: aq
  • Posts: 194
  • Topics: 92
  • Join Date: Dec 2016
  • ShareSpark Member

January 08, 2017, 01:15:39 PM
Reply #2
  • Legend
  • Legend Member
  • ***
  • Topic Author
  • Thank You: 1582
  • Reputation: 345
  • Activity:
    19.8%
  • Country: in
  • Posts: 3223
  • Topics: 1966
  • Join Date: Dec 2013
  • ShareSpark Member

January 08, 2017, 01:44:22 PM
Reply #3
  • Devoted Member
  • **
  • Thank You: 40
  • Reputation: 11
  • Activity:
    19.4%
  • Country: aq
  • Posts: 194
  • Topics: 92
  • Join Date: Dec 2016
  • ShareSpark Member

January 08, 2017, 02:26:44 PM
Reply #4
  • Elite Member
  • ***
  • Thank You: 481
  • Reputation: 167
  • Activity:
    0%
  • Country: bd
  • Posts: 411
  • Topics: 105
  • Join Date: Feb 2013
  • ShareSpark Member

January 09, 2017, 01:16:43 PM
Reply #5
  • Special Member
  • ****
  • Thank You: 61
  • Reputation: 33
  • Activity:
    1.2%
  • Country: in
  • Posts: 757
  • Topics: 54
  • Join Date: Dec 2013
  • ShareSpark Member

Tags:
 

Related Topics





Back to top