+ ShareSpark.net »  :::: Hollywood Zone » Hollywood Movies (Original Rips) » High Resolution Movies
|- The Harrow 2016 1080p WEB-DL DD5.1 H264 3.3GB [FGT]


The Harrow 2016 1080p WEB-DL DD5.1 H264 3.3GB [FGT]

0 Members and 1 Guest are viewing this topic.

January 10, 2017, 06:10:29 PM
  • Team SSX
  • Elite Forces
  • ***
  • Topic Author
  • Thank You: 544
  • Reputation: 111
  • Activity:
    100%
  • Country: in
  • Posts: 1272
  • Topics: 785
  • Join Date: Sep 2016
  • (: EnJOy ThE LiFe :)
Torrable - One stop for all your download & upload needs. It's smart, easy and free.
:title:
The Harrow 2016 1080p WEB-DL DD5.1 H264 FGT



 :info:

Video
ID                                       : 1
Format                                   : AVC
Format/Info                              : Advanced Video Codec
Format profile                           : High@L4
Format settings, CABAC                   : Yes
Format settings, ReFrames                : 5 frames
Codec ID                                 : V_MPEG4/ISO/AVC
Duration                                 : 1h 35mn
Bit rate                                 : 4 520 Kbps
Width                                    : 1 920 pixels
Height                                   : 796 pixels
Display aspect ratio                     : 2.40:1
Frame rate mode                          : Constant
Frame rate                               : 23.976 fps
Color space                              : YUV
Chroma subsampling                       : 4:2:0
Bit depth                                : 8 bits
Scan type                                : Progressive
Bits/(Pixel*Frame)                       : 0.123
Stream size                              : 3.02 GiB (90%)
Title                                    : The.Harrow.2016.1080p.WEB-DL.DD5.1.H264-FGT
Language                                 : English
Default                                  : Yes
Forced                                   : No
Color range                              : Limited
Color primaries                          : BT.709
Transfer characteristics                 : BT.709
Matrix coefficients                      : BT.709

Audio
ID                                       : 2
Format                                   : AC-3
Format/Info                              : Audio Coding 3
Mode extension                           : CM (complete main)
Format settings, Endianness              : Big
Codec ID                                 : A_AC3
Duration                                 : 1h 35mn
Bit rate mode                            : Constant
Bit rate                                 : 384 Kbps
Channel(s)                               : 6 channels
Channel positions                        : Front: L C R, Side: L R, LFE
Sampling rate                            : 48.0 KHz
Frame rate                               : 31.250 fps (1536 spf)
Compression mode                         : Lossy
Stream size                              : 263 MiB (8%)
Title                                    : The.Harrow.2016.1080p.WEB-DL.DD5.1.H264-FGT
Language                                 : English
Default                                  : Yes
Forced                                   : No

Text
ID                                       : 3
Format                                   : UTF-8
Codec ID                                 : S_TEXT/UTF8
Codec ID/Info                            : UTF-8 Plain Text
Language                                 : English
Default                                  : Yes
Forced                                   : No


 :ss:











 :download:








SUBTITLES :



Share this topic on FacebookShare this topic on GoogleShare this topic on MySpaceShare this topic on TwitterShare this topic on Yahoo



Thanks given by:


Tags:
 

Related Topics

  Subject / Started by Replies Last post
0 Replies
218 Views
Last post August 19, 2016, 05:02:07 PM
by ♥ Mann ♥
0 Replies
237 Views
Last post August 19, 2016, 05:10:04 PM
by ♥ Mann ♥
0 Replies
217 Views
Last post September 02, 2016, 03:51:33 PM
by ♥ Mann ♥
0 Replies
238 Views
Last post September 21, 2016, 03:07:56 PM
by -Ð@Rk.ÐèVi£-
0 Replies
53 Views
Last post January 10, 2017, 04:41:27 PM
by PSYCHO




Back to top