+ ShareSpark.net »  :::: Hollywood Zone » Hollywood Movies (Original Rips) » High Resolution Movies
|- Christine 2016 720p WEB-DL XviD AC3 3.28GB [FGT]


Christine 2016 720p WEB-DL XviD AC3 3.28GB [FGT]

0 Members and 1 Guest are viewing this topic.

January 10, 2017, 06:24:05 PM
  • Team SSX
  • Legend Member
  • ***
  • Topic Author
  • Thank You: 1171
  • Reputation: 157
  • Activity:
    100%
  • Country: in
  • Posts: 2112
  • Topics: 1506
  • Join Date: Sep 2016
  • (: EnJOy D LiFe :)
Torrable - One stop for all your download & upload needs. It's smart, easy and free.
:title:
Christine 2016 720p WEB-DL XviD AC3 FGT



 :info:

Video
ID                                       : 0
Format                                   : MPEG-4 Visual
Format profile                           : [email protected]
Format settings, BVOP                    : No
Format settings, QPel                    : No
Format settings, GMC                     : No warppoints
Format settings, Matrix                  : Default (H.263)
Codec ID                                 : XVID
Codec ID/Hint                            : XviD
Duration                                 : 1h 59mn
Bit rate                                 : 3 552 Kbps
Width                                    : 1 280 pixels
Height                                   : 720 pixels
Display aspect ratio                     : 16:9
Frame rate                               : 23.976 fps
Color space                              : YUV
Chroma subsampling                       : 4:2:0
Bit depth                                : 8 bits
Scan type                                : Progressive
Compression mode                         : Lossy
Bits/(Pixel*Frame)                       : 0.161
Stream size                              : 2.95 GiB (90%)
Writing library                          : Lavc57.24.102

Audio
ID                                       : 1
Format                                   : AC-3
Format/Info                              : Audio Coding 3
Mode extension                           : CM (complete main)
Format settings, Endianness              : Big
Codec ID                                 : 2000
Duration                                 : 1h 59mn
Bit rate mode                            : Constant
Bit rate                                 : 384 Kbps
Channel(s)                               : 6 channels
Channel positions                        : Front: L C R, Side: L R, LFE
Sampling rate                            : 48.0 KHz
Frame rate                               : 31.250 fps (1536 spf)
Compression mode                         : Lossy
Stream size                              : 327 MiB (10%)
Alignment                                : Aligned on interleaves
Interleave, duration                     : 42 ms (1.00 video frame)
Interleave, preload duration             : 512 ms


 :ss:













 :download:








SUBTITLES :



Share this topic on FacebookShare this topic on GoogleShare this topic on MySpaceShare this topic on TwitterShare this topic on Yahoo



Thanks given by:


Tags:
 

Related Topics

  Subject / Started by Replies Last post
0 Replies
79 Views
Last post January 10, 2017, 04:31:14 PM
by PSYCHO
0 Replies
56 Views
Last post February 24, 2017, 10:03:00 PM
by PSYCHO
1 Replies
156 Views
Last post February 25, 2017, 12:14:12 PM
by -SHADNAN-
0 Replies
94 Views
Last post February 26, 2017, 12:22:47 PM
by johny82
0 Replies
67 Views
Last post March 13, 2017, 05:59:28 PM
by PSYCHO




Back to top