+ ShareSpark.net »  :::: Hollywood Zone » Hollywood Movies (Original Rips) » High Resolution Movies
|- Christine 2016 720p WEB-DL XviD AC3 3.28GB [FGT]


Christine 2016 720p WEB-DL XviD AC3 3.28GB [FGT]

0 Members and 1 Guest are viewing this topic.

January 10, 2017, 06:24:05 PM
  • Special Member
  • ****
  • Topic Author
  • Thank You: 141
  • Reputation: 58
  • Activity:
    100%
  • Country: in
  • Posts: 743
  • Topics: 366
  • Join Date: Sep 2016
  • ShareSpark Member
Torrable - One stop for all your download & upload needs. It's smart, easy and free.
:title:
Christine 2016 720p WEB-DL XviD AC3 FGT



 :info:

Video
ID                                       : 0
Format                                   : MPEG-4 Visual
Format profile                           : [email protected]
Format settings, BVOP                    : No
Format settings, QPel                    : No
Format settings, GMC                     : No warppoints
Format settings, Matrix                  : Default (H.263)
Codec ID                                 : XVID
Codec ID/Hint                            : XviD
Duration                                 : 1h 59mn
Bit rate                                 : 3 552 Kbps
Width                                    : 1 280 pixels
Height                                   : 720 pixels
Display aspect ratio                     : 16:9
Frame rate                               : 23.976 fps
Color space                              : YUV
Chroma subsampling                       : 4:2:0
Bit depth                                : 8 bits
Scan type                                : Progressive
Compression mode                         : Lossy
Bits/(Pixel*Frame)                       : 0.161
Stream size                              : 2.95 GiB (90%)
Writing library                          : Lavc57.24.102

Audio
ID                                       : 1
Format                                   : AC-3
Format/Info                              : Audio Coding 3
Mode extension                           : CM (complete main)
Format settings, Endianness              : Big
Codec ID                                 : 2000
Duration                                 : 1h 59mn
Bit rate mode                            : Constant
Bit rate                                 : 384 Kbps
Channel(s)                               : 6 channels
Channel positions                        : Front: L C R, Side: L R, LFE
Sampling rate                            : 48.0 KHz
Frame rate                               : 31.250 fps (1536 spf)
Compression mode                         : Lossy
Stream size                              : 327 MiB (10%)
Alignment                                : Aligned on interleaves
Interleave, duration                     : 42 ms (1.00 video frame)
Interleave, preload duration             : 512 ms


 :ss:













 :download:








SUBTITLES :



Share this topic on FacebookShare this topic on GoogleShare this topic on MySpaceShare this topic on TwitterShare this topic on Yahoo




Tags:
 

Related Topics

  Subject / Started by Replies Last post
3 Replies
564 Views
Last post February 06, 2014, 03:41:09 PM
by яαzσя 07
1 Replies
456 Views
Last post May 17, 2014, 01:03:31 AM
by ΔяJîт
0 Replies
115 Views
Last post October 03, 2016, 10:10:22 PM
by -Ð@Rk.ÐèVi£-
1 Replies
93 Views
Last post December 23, 2016, 11:56:43 PM
by proyer
0 Replies
43 Views
Last post January 10, 2017, 04:31:14 PM
by PSYCHO




Back to top