+ ShareSpark.net »  :::: Dubbed Zone (Dubbed English in Hindi) » TV Shows (Dubbed in Hindi)
|- Arrow S01E03 Hindi 720p – HDTV X264 – [Team EDM]


Arrow S01E03 Hindi 720p – HDTV X264 – [Team EDM]

0 Members and 1 Guest are viewing this topic.

January 10, 2017, 08:39:12 PM
  • Semi Newbie
  • **
  • Topic Author
  • Thank You: 22
  • Reputation: 5
  • Activity:
    4.6%
  • Country: pk
  • Posts: 23
  • Topics: 17
  • Join Date: May 2016
  • ShareSpark Member
Torrable - One stop for all your download & upload needs. It's smart, easy and free.
Arrow S01E03 Hindi 720p – HDTV X264 – [Team EDM]

Format                  : Matroska
Format version              : Version 4 / Version 2
File size                : 540 MiB
Duration                 : 41 min
Overall bit rate             : 1 491 kb/s
Movie name                : Arrow S01E03 Hindi 720p – HDTV X264 [Team EDM]
Format                  : AVC
Format/Info               : Advanced Video Codec
Format profile              : [email protected]
Format settings, CABAC          : Yes
Format settings, ReFrames        : 4 frames
Codec ID                 : V_MPEG4/ISO/AVC
Duration                 : 41 min
Bit rate                 : 1 255 kb/s
Width                  : 1 280 pixels
Height                  : 720 pixels
Display aspect ratio           : 16:9
Frame rate mode             : Constant
Frame rate                : 25.000 FPS
Color space               : YUV
Chroma subsampling            : 4:2:0
Bit depth                : 8 bits
Scan type                : Progressive
Bits/(Pixel*Frame)            : 0.054
Stream size               : 377 MiB (87%)
Title                  : Arrow S01E03 Hindi 720p – HDTV X264 – [Team EDM]
Language                 : English
Default                 : Yes
Forced                  : No
Color range               : Limited
Color primaries             : BT.601 PAL
Transfer characteristics         : BT.709
Matrix coefficients           : BT.601Audio
ID                    : 2
Format                  : AAC
Format/Info               : Advanced Audio Codec
Format profile              : LC
Codec ID                 : A_AAC
Duration                 : 40 min
Bit rate                 : 192 kb/s
Channel(s)                : 2 channels
Channel positions            : Front: L R
Sampling rate              : 48.0 kHz
Frame rate                : 46.875 FPS (1024 spf)
Compression mode             : Lossy
Delay relative to video         : -21 ms
Stream size               : 55.8 MiB (13%)
Title                  : Arrow S01E03 Hindi 720p – HDTV X264 –  [Team EDM]
Language                 : Hindi
Default                 : Yes
Forced                  : No

This is Urdu(PAK Dubbed) Audio
Keep in Mind
Ahmed Maher Thanks
Take It Or Leave It


Stay toon With Us For More Exclusive Release

:ss:
:dance:
:pakistan:
:happynewyear:
:dl:
:download:

Share this topic on FacebookShare this topic on GoogleShare this topic on MySpaceShare this topic on TwitterShare this topic on Yahoo

« Last Edit: January 10, 2017, 08:39:40 PM by ahmedmaher »


Thanks given by:


January 10, 2017, 09:08:17 PM
Reply #1
  • Special Member
  • ****
  • Thank You: 139
  • Reputation: 56
  • Activity:
    100%
  • Country: in
  • Posts: 733
  • Topics: 357
  • Join Date: Sep 2016
  • ShareSpark Member

January 10, 2017, 09:18:37 PM
Reply #2
  • LaDLa PriNce
  • Addic7ed (Inactive)
  • Legend Member
  • ****
  • Thank You: 205
  • Reputation: 90
  • Activity:
    14.6%
  • Country: pk
  • Posts: 1613
  • Topics: 148
  • Join Date: Sep 2012
  • I <3 ShareSpark

January 10, 2017, 09:28:04 PM
Reply #3
  • LaDLa PriNce
  • Addic7ed (Inactive)
  • Legend Member
  • ****
  • Thank You: 205
  • Reputation: 90
  • Activity:
    14.6%
  • Country: pk
  • Posts: 1613
  • Topics: 148
  • Join Date: Sep 2012
  • I <3 ShareSpark

January 13, 2017, 09:34:56 PM
Reply #4
  • Senior Member
  • ***
  • Thank You: 0
  • Reputation: 1
  • Activity:
    1.4%
  • Country: in
  • Posts: 219
  • Topics: 0
  • Join Date: Aug 2013
  • ShareSpark Member
Bhai dual audio mi kar sako too dual audio webrip 720 mi karo.and thanks

Tags: arrow ep3 
 

Related Topics

  Subject / Started by Replies Last post
0 Replies
242 Views
Last post October 12, 2015, 09:58:24 AM
by -Ð@Rk.ÐèVi£-
0 Replies
399 Views
Last post October 12, 2015, 10:08:43 AM
by -Ð@Rk.ÐèVi£-
2 Replies
697 Views
Last post December 31, 2016, 12:04:02 PM
by VDA
1 Replies
334 Views
Last post January 03, 2017, 11:34:05 PM
by azhar0300♥♫
0 Replies
100 Views
Last post January 17, 2017, 05:59:04 PM
by ahmedmaher




Back to top