+ ShareSpark.net »  :::: Bollywood Zone » Bollywood Movies (Original Rips)
|- A Scandall (2016) - 720p - WebHD-Rip - Hindi - x264 - AAC - 2.0 - Mafiaking - M2Tv


Flipkart Offer

A Scandall (2016) - 720p - WebHD-Rip - Hindi - x264 - AAC - 2.0 - Mafiaking - M2Tv

0 Members and 1 Guest are viewing this topic.

January 11, 2017, 11:13:07 AM
  • Semi Newbie
  • **
  • Topic Author
  • Thank You: 3
  • Reputation: -8
  • Activity:
    0%
  • Country: pk
  • Posts: 18
  • Topics: 18
  • Join Date: Jan 2017
  • ShareSpark Member
Flipkart Offer



Code: [Select]
Genere: Thriller

General
Unique ID : 221872205399191901830931276350577982612 (0xA6EB084CB6A2BB45B619367756443C94)
Complete name : A Scandall (2016) - 720p - WebHD-Rip - Hindi - x264 - AAC - 2.0 - Mafiaking - M2Tv.mkv
Format : Matroska
Format version : Version 4 / Version 2
File size : 903 MiB
Duration : 1 h 48 min
Overall bit rate : 1 161 kb/s
Movie name : A Scandall (2016) - 720p - WebHD-Rip - Hindi - x264 - AAC - 2.0 - Mafiaking - M2Tv
Encoded date : UTC 2016-11-27 18:15:26
Writing application : mkvmerge v7.0.0 ('Where We Going') 32bit built on Jun 9 2014 15:08:34
Writing library : libebml v1.3.0 + libmatroska v1.4.1

Video
ID : 1
Format : AVC
Format/Info : Advanced Video Codec
Format profile : [email protected]
Format settings, CABAC : Yes
Format settings, ReFrames : 3 frames
Codec ID : V_MPEG4/ISO/AVC
Duration : 1 h 48 min
Bit rate : 1 000 kb/s
Width : 1 280 pixels
Height : 544 pixels
Display aspect ratio : 2.35:1
Frame rate mode : Constant
Frame rate : 24.000 FPS
Color space : YUV
Chroma subsampling : 4:2:0
Bit depth : 8 bits
Scan type : Progressive
Bits/(Pixel*Frame) : 0.060
Stream size : 776 MiB (86%)
Title : Mafiaking
Language : Hindi
Default : Yes
Forced : No

Audio
ID : 2
Format : AAC
Format/Info : Advanced Audio Codec
Format profile : LC
Codec ID : A_AAC
Duration : 1 h 48 min
Bit rate : 160 kb/s
Channel(s) : 2 channels
Channel positions : Front: L R
Sampling rate : 44.1 kHz
Frame rate : 43.066 FPS (1024 spf)
Compression mode : Lossy
Stream size : 124 MiB (14%)
Title : Mafiaking
Language : Hindi
Default : Yes
Forced : No











Code: [Select]
http://rg.to/file/05cfb1d7eeca85e048532451e023ac09/A_Scandall_(2016)_-_720p_-_WebHD-Rip_-_Hindi_-_x264_-_AAC_-_2.0_-_Mafiaking_-_M2Tv.mkv.html
http://www.arabloads.net/fc0zzkjra2kp/A_Scandall_(2016)_-_720p_-_WebHD-Rip_-_Hindi_-_x264_-_AAC_-_2.0_-_Mafiaking_-_M2Tv.mkv.html
http://www.heroupload.com/409b9cf5c9a7c008/A_Scandall_(2016)_-_720p_-_WebHD-Rip_-_Hindi_-_x264_-_AAC_-_2.0_-_Mafiaking_-_M2Tv.mkv
https://clicknupload.link/ugqxw13pwh55

http://www.indishare.me/wdzzxqxuo9qz

https://bdupload.info/ch42w4duhdap

http://uptobox.com/wfvg559skfpw

Share this topic on FacebookShare this topic on GoogleShare this topic on MySpaceShare this topic on TwitterShare this topic on Yahoo




Tags:
 

Related Topics





Back to top