+ ShareSpark.net »  :::: Hollywood Zone » Hollywood Movies (Pre Releases)
|- Hidden Figures 2016 DVDSCR x264 P2P [813MB]


Hidden Figures 2016 DVDSCR x264 P2P [813MB]

0 Members and 1 Guest are viewing this topic.

January 13, 2017, 04:42:45 PM
  • Addic7ed
  • Legend Member
  • ****
  • Topic Author
  • Thank You: 1705
  • Reputation: 230
  • Activity:
    100%
  • Country: in
  • Posts: 3092
  • Topics: 2298
  • Join Date: Sep 2016
  • (: EnJOy D LiFe :)
:title:
Hidden Figures 2016 DVDSCR x264 P2P



 :info:

Video
ID                                       : 1
Format                                   : AVC
Format/Info                              : Advanced Video Codec
Format profile                           : [email protected]
Format settings, CABAC                   : Yes
Format settings, ReFrames                : 4 frames
Codec ID                                 : avc1
Codec ID/Info                            : Advanced Video Coding
Duration                                 : 2h 6mn
Bit rate                                 : 768 Kbps
Width                                    : 720 pixels
Height                                   : 356 pixels
Display aspect ratio                     : 2.40:1
Frame rate mode                          : Variable
Frame rate                               : 28.830 fps
Minimum frame rate                       : 28.828 fps
Maximum frame rate                       : 28.837 fps
Color space                              : YUV
Chroma subsampling                       : 4:2:0
Bit depth                                : 8 bits
Scan type                                : Progressive
Bits/(Pixel*Frame)                       : 0.104
Stream size                              : 693 MiB (85%)
Writing library                          : x264 core 142 r2491 24e4fed
Color range                              : Limited
Color primaries                          : BT.601 NTSC
Transfer characteristics                 : BT.709
Matrix coefficients                      : BT.601

Audio
ID                                       : 2
Format                                   : AAC
Format/Info                              : Advanced Audio Codec
Format profile                           : LC
Codec ID                                 : 40
Duration                                 : 2h 6mn
Bit rate mode                            : Variable
Bit rate                                 : 125 Kbps
Channel(s)                               : 2 channels
Channel positions                        : Front: L R
Sampling rate                            : 44.1 KHz
Frame rate                               : 43.066 fps (1024 spf)
Compression mode                         : Lossy
Stream size                              : 114 MiB (14%)
Title                                    : Stereo / Stereo
Default                                  : Yes


 :ss:





 :download:








Share this topic on FacebookShare this topic on GoogleShare this topic on MySpaceShare this topic on TwitterShare this topic on Yahoo




Tags:
 

Related Topics





Back to top